<?xml version="1.0" standalone="no"?>
<!DOCTYPE svg PUBLIC "-//W3C//DTD SVG 1.1//EN" "http://www.w3.org/Graphics/SVG/1.1/DTD/svg11.dtd" >
<svg xmlns="http://www.w3.org/2000/svg">
<metadata>Generated by IcoMoon</metadata>
<defs>
<font id="icofonts" horiz-adv-x="1024">
<font-face units-per-em="1024" ascent="960" descent="-64" />
<missing-glyph horiz-adv-x="1024" />
<glyph unicode="&#x20;" horiz-adv-x="512" d="" />
<glyph unicode="&#xe900;" glyph-name="linkedin" horiz-adv-x="1088" d="M256.094-62.005v688.234h-241.805v-688.234h241.805zM135.191 720.196c84.323 0 136.806 52.848 136.806 118.894-1.571 67.532-52.484 118.915-135.206 118.915-82.715 0-136.795-51.382-136.795-118.915 0-66.046 52.473-118.894 133.619-118.894h1.576zM373.998-62.005h233.907v389.592c0 20.849 1.52 41.678 7.697 56.581 16.909 41.661 55.395 84.805 120.016 84.805 84.638 0 118.496-63.973 118.496-157.757v-373.22h233.891v400.013c0 214.283-115.4 313.993-269.295 313.993-126.184 0-181.584-69.92-212.363-117.545h1.564v101.174h-233.909c3.069-65.461-0.006-697.636-0.006-697.636z" />
<glyph unicode="&#xe901;" glyph-name="twitter" d="M383.608 418.642l-360.931-428.406h168.247l273.736 325.293 256.405-326.193h302.935l-402.447 512.632 339.413 403.337h-167.343l-252.979-300.272-236.798 301.631h-303.845l383.605-488.022zM765.223 79.754l-578.914 736.487h73.346l578.18-736.487h-72.615z" />
<glyph unicode="&#xe902;" glyph-name="person" d="M426.667 448h170.667c235.64 0 426.667-191.027 426.667-426.667 0-43.759-32.939-79.829-75.384-84.761l-9.949-0.572h-853.333c-47.128 0-85.333 38.204-85.333 85.333 0 229.444 181.104 416.581 408.159 426.272l18.508 0.395zM512 960c141.384 0 256-114.616 256-256s-114.616-256-256-256c-141.384 0-256 114.616-256 256s114.616 256 256 256z" />
<glyph unicode="&#xe903;" glyph-name="qoute" horiz-adv-x="1152" d="M417.288 960l-78.464-486.101h142.662v-537.899h-481.486v545.867l128.396 478.133h288.892zM1087.802 960l-78.464-486.101h142.662v-537.899h-481.486v545.867l128.397 478.133h288.891z" />
<glyph unicode="&#xe904;" glyph-name="link" d="M216.281 507.144c32.664-32.664 32.664-85.624 0-118.288-65.328-65.328-65.328-171.248 0-236.579 61.889-61.884 160.209-65.144 225.935-9.771l17.936 16.273c32.831 26.001 80.661 23.833 110.992-6.503 32.665-32.657 32.665-85.624 0-118.28-130.657-130.663-342.493-130.663-473.151 0-130.656 130.653-130.656 342.489 0 473.147 32.665 32.665 85.624 32.665 118.288 0zM630.288 566.288c32.665-32.664 32.665-85.624 0-118.288l-118.288-118.288c-32.664-32.665-85.624-32.665-118.288 0s-32.665 85.624 0 118.288l118.288 118.288c32.664 32.665 85.624 32.665 118.288 0zM926.003 862.008c130.663-130.657 130.663-342.493 0-473.151-32.657-32.665-85.624-32.665-118.28 0-32.665 32.664-32.665 85.624 0 118.288 65.323 65.328 65.323 171.247 0 236.576-61.892 61.891-160.213 65.148-225.937 9.772l-17.936-16.272c-32.831-25.999-80.661-23.832-110.992 6.499-32.665 32.665-32.665 85.624 0 118.288 130.657 130.656 342.493 130.656 473.147 0z" />
<glyph unicode="&#xe905;" glyph-name="link2" d="M75.359 375.224l145.547 145.549c20.095 20.095 52.677 20.095 72.773 0 18.66-18.66 19.994-48.087 3.999-68.285l-3.999-4.488-145.547-145.546c-60.287-60.288-60.287-158.034 0-218.322 58.135-58.132 151.099-60.211 211.721-6.226l6.599 6.226 145.547 145.546c20.096 20.096 52.68 20.096 72.776 0 18.657-18.657 19.994-48.087 3.999-68.285l-3.999-4.485-145.549-145.546c-100.479-100.48-263.388-100.48-363.867 0-97.835 97.833-100.409 254.853-7.724 355.804l7.724 8.059zM584.776 884.641c100.475 100.479 263.388 100.479 363.863 0 100.48-100.479 100.48-263.388 0-363.867l-145.546-145.549c-20.096-20.096-52.675-20.096-72.771 0s-20.096 52.68 0 72.776l145.546 145.547c60.288 60.287 60.288 158.033 0 218.32s-158.034 60.287-218.322 0l-145.546-145.547c-20.096-20.096-52.678-20.096-72.774 0s-20.095 52.678 0 72.773l145.549 145.547zM584.776 593.547c20.096 20.096 52.675 20.096 72.771 0s20.096-52.678 0-72.773l-218.32-218.32c-20.095-20.096-52.678-20.096-72.773 0s-20.096 52.675 0 72.771l218.322 218.322z" />
<glyph unicode="&#xe906;" glyph-name="person2" d="M256 243.2h512c141.384 0 256-114.616 256-256 0-28.278-22.922-51.2-51.2-51.2-26.255 0-47.898 19.763-50.857 45.23l-0.604 14.996c-4.5 77.645-66.668 139.812-144.312 144.312l-9.027 0.261h-512c-84.831 0-153.6-68.767-153.6-153.6 0-28.278-22.923-51.2-51.2-51.2s-51.2 22.922-51.2 51.2c0 137.667 108.662 249.948 244.895 255.764l11.105 0.236zM512 960c169.661 0 307.2-137.538 307.2-307.2s-137.539-307.2-307.2-307.2c-169.662 0-307.2 137.538-307.2 307.2s137.538 307.2 307.2 307.2zM512 857.6c-113.108 0-204.8-91.692-204.8-204.8s91.692-204.8 204.8-204.8c113.106 0 204.8 91.692 204.8 204.8s-91.694 204.8-204.8 204.8z" />
<glyph unicode="&#xe907;" glyph-name="calendar" d="M682.667 960c47.129 0 85.333-38.205 85.333-85.333v-85.333c141.389 0 256-114.616 256-256v-341.333c0-141.389-114.611-256-256-256h-512c-141.384 0-256 114.611-256 256v341.333c0 141.384 114.616 256 256 256v85.333c0 47.128 38.205 85.333 85.333 85.333s85.333-38.205 85.333-85.333v-85.333h170.667v85.333c0 47.128 38.205 85.333 85.333 85.333zM768 618.667h-512c-47.128 0-85.333-38.205-85.333-85.333v-341.333c0-47.129 38.205-85.333 85.333-85.333h512c47.129 0 85.333 38.204 85.333 85.333v341.333c0 47.128-38.204 85.333-85.333 85.333z" />
<glyph unicode="&#xe908;" glyph-name="mapmarker" d="M512 959.999c234.973 0 426.666-202.894 426.666-454.694 0-146.36-126.856-331.089-399.797-548.194l-26.869-21.112c-291.492 226.261-426.666 418.223-426.666 569.305 0 251.8 191.69 454.694 426.666 454.694zM512 704c-94.256 0-170.666-76.411-170.666-170.666s76.411-170.666 170.666-170.666c94.256 0 170.666 76.411 170.666 170.666s-76.411 170.666-170.666 170.666z" />
<glyph unicode="&#xe909;" glyph-name="arrow-left" horiz-adv-x="1280" d="M562.579 935.226l-5.324 6.029c-23.071 23.071-59.374 24.846-84.481 5.324l-6.029-5.324-450.649-450.813-3.53-4.342-4.586-7.12-3.421-7.214-2.264-6.742-1.852-9.465-0.442-7.558 0.178-4.815 1.117-8.031 1.888-7.13 2.812-7.109 3.349-6.239 4.716-6.703 4.685-5.226 448-447.999c24.994-24.992 65.516-24.992 90.51 0 23.071 23.072 24.845 59.373 5.324 84.48l-5.324 6.029-338.631 338.746h997.376c35.347 0 64 28.653 64 64s-28.653 64-64 64h-997.504l338.759 338.745c23.071 23.071 24.845 59.374 5.324 84.481v0z" />
<glyph unicode="&#xe90a;" glyph-name="close" d="M612.565 447.974l376.393 376.392c27.802 27.804 27.802 72.747 0 100.551-27.806 27.804-72.747 27.804-100.553 0l-376.393-376.391-376.39 376.391c-27.805 27.804-72.747 27.804-100.551 0s-27.804-72.747 0-100.551l376.391-376.392-376.391-376.388c-27.804-27.806-27.804-72.747 0-100.553 13.867-13.867 32.071-20.834 50.276-20.834s36.409 6.967 50.275 20.834l376.39 376.393 376.393-376.393c13.867-13.867 32.073-20.834 50.274-20.834 18.206 0 36.412 6.967 50.278 20.834 27.802 27.806 27.802 72.747 0 100.553l-376.393 376.388z" />
<glyph unicode="&#xe90b;" glyph-name="chevron-down" d="M790.25 641c-8.462-0.273-16.813-2.205-24.5-5.75-7.694-3.547-14.551-8.621-20.25-14.875l-222.25-222.125-224 224c-5.978 5.775-13.017 10.327-20.75 13.375s-16.064 4.518-24.375 4.375c-8.309-0.144-16.5-1.937-24.125-5.25-7.623-3.313-14.474-8.021-20.25-14s-10.327-13.017-13.375-20.75c-3.048-7.733-4.518-16.064-4.375-24.375s1.937-16.502 5.25-24.125c3.313-7.624 8.021-14.474 14-20.25l267.25-267.25c11.864-11.857 27.968-18.625 44.75-18.625s32.886 6.769 44.75 18.625l268.625 268.625c5.997 5.894 10.751 12.871 14 20.625 3.265 7.802 5.034 16.266 5 24.75-0.026 8.463-1.799 16.832-5.125 24.625-3.321 7.783-8.16 14.745-14.25 20.625-6.089 5.871-13.343 10.58-21.25 13.625-7.903 3.046-16.287 4.398-24.75 4.125z" />
<glyph unicode="&#xe90c;" glyph-name="chevron-right" d="M389 775c-8.465-0.027-16.837-1.679-24.625-5s-14.745-8.158-20.625-14.25c-5.879-6.092-10.581-13.35-13.625-21.25s-4.397-16.288-4.125-24.75 2.204-16.812 5.75-24.5c3.546-7.687 8.616-14.549 14.875-20.25l222.25-222.25-224.125-224c-5.777-5.979-10.327-13.142-13.375-20.875s-4.518-15.94-4.375-24.25c0.143-8.314 1.938-16.504 5.25-24.125 3.311-7.619 8.014-14.47 14-20.25 5.947-5.744 13.039-10.328 20.75-13.375 7.73-3.048 16.057-4.646 24.375-4.5 8.322 0.134 16.503 1.936 24.125 5.25 7.618 3.312 14.473 8.145 20.25 14.125l267.25 267.25c11.868 11.867 18.625 27.973 18.625 44.75s-6.757 32.883-18.625 44.75l-268.625 268.625c-5.894 5.996-12.871 10.751-20.625 14-7.809 3.272-16.283 4.902-24.75 4.875z" />
<glyph unicode="&#xe90d;" glyph-name="dots-square" d="M256 256c35.346 0 64-28.653 64-64s-28.654-64-64-64c-35.346 0-64 28.653-64 64s28.654 64 64 64zM512 256c35.346 0 64-28.653 64-64s-28.654-64-64-64c-35.346 0-64 28.653-64 64s28.654 64 64 64zM768 256c35.347 0 64-28.653 64-64s-28.653-64-64-64c-35.347 0-64 28.653-64 64s28.653 64 64 64zM256 512c35.346 0 64-28.654 64-64s-28.654-64-64-64c-35.346 0-64 28.654-64 64s28.654 64 64 64zM512 512c35.346 0 64-28.654 64-64s-28.654-64-64-64c-35.346 0-64 28.654-64 64s28.654 64 64 64zM768 512c35.347 0 64-28.654 64-64s-28.653-64-64-64c-35.347 0-64 28.654-64 64s28.653 64 64 64zM256 768c35.346 0 64-28.654 64-64s-28.654-64-64-64c-35.346 0-64 28.654-64 64s28.654 64 64 64zM512 768c35.346 0 64-28.654 64-64s-28.654-64-64-64c-35.346 0-64 28.654-64 64s28.654 64 64 64zM768 768c35.347 0 64-28.654 64-64s-28.653-64-64-64c-35.347 0-64 28.654-64 64s28.653 64 64 64z" />
<glyph unicode="&#xe90e;" glyph-name="phone" d="M323.979 512h60.021c35.346 0 64 28.654 64 64v128c0 70.692-57.308 128-128 128h-128c-35.346 0-64-28.654-64-64 0-369.172 334.828-704 704-704 35.347 0 64 28.653 64 64v128c0 70.692-57.306 128-128 128h-128c-35.346 0-64-28.654-64-64v-60.019c-98.588 53.786-183.398 135.799-240.891 232.49l-11.13 19.53z" />
<glyph unicode="&#xe90f;" glyph-name="cellphone" d="M682.662 874.668c70.694 0 128-57.308 128-128v-597.331c0-70.694-57.306-128-128-128h-341.331c-70.692 0-128 57.306-128 128v597.331c0 70.692 57.308 128 128 128h341.331zM682.662 789.334h-341.331c-23.564 0-42.666-19.102-42.666-42.666v-597.331c0-23.565 19.102-42.669 42.666-42.669h341.331c23.565 0 42.669 19.104 42.669 42.669v597.331c0 23.564-19.104 42.666-42.669 42.666zM511.999 277.338c23.564 0 42.667-19.104 42.667-42.669s-19.103-42.669-42.667-42.669c-23.564 0-42.667 19.104-42.667 42.669s19.103 42.669 42.667 42.669z" />
<glyph unicode="&#xe910;" glyph-name="magnify-condensed" d="M426.667 960c235.641 0 426.667-191.025 426.667-426.667 0-86.964-26.017-167.851-70.693-235.302l216.365-216.358c33.323-33.323 33.323-87.356 0-120.678-30.763-30.763-79.164-33.126-112.64-7.1l-8.038 7.1-216.358 216.365c-67.452-44.675-148.338-70.693-235.302-70.693-235.641 0-426.667 191.025-426.667 426.667s191.025 426.667 426.667 426.667zM426.667 789.333c-141.385 0-256-114.615-256-256s114.615-256 256-256c141.385 0 256 114.615 256 256s-114.615 256-256 256z" />
<glyph unicode="&#xe911;" glyph-name="magnify" d="M469.333 874.667c212.079 0 384-171.923 384-384 0-90.658-31.415-173.978-83.955-239.667l156.791-156.83c16.661-16.661 16.661-43.678 0-60.339-15.381-15.381-39.582-16.563-56.32-3.55l-4.019 3.55-156.83 156.791c-65.69-52.54-149.009-83.955-239.667-83.955-212.077 0-384 171.921-384 384 0 212.077 171.923 384 384 384zM469.333 789.333c-164.949 0-298.667-133.718-298.667-298.667s133.718-298.667 298.667-298.667c164.949 0 298.667 133.717 298.667 298.667s-133.717 298.667-298.667 298.667z" />
<glyph unicode="&#xe912;" glyph-name="hamburger-condensed" d="M938.667 192c47.13 0 85.333-38.205 85.333-85.333s-38.204-85.333-85.333-85.333h-853.333c-47.128 0-85.333 38.205-85.333 85.333s38.205 85.333 85.333 85.333h853.333zM938.667 533.333c47.13 0 85.333-38.205 85.333-85.333s-38.204-85.333-85.333-85.333h-853.333c-47.128 0-85.333 38.205-85.333 85.333s38.205 85.333 85.333 85.333h853.333zM938.667 874.667c47.13 0 85.333-38.205 85.333-85.333s-38.204-85.333-85.333-85.333h-853.333c-47.128 0-85.333 38.205-85.333 85.333s38.205 85.333 85.333 85.333h853.333z" />
<glyph unicode="&#xe913;" glyph-name="hamburger" d="M896 234.667c23.565 0 42.667-19.102 42.667-42.667s-19.102-42.667-42.667-42.667h-768c-23.564 0-42.667 19.102-42.667 42.667s19.103 42.667 42.667 42.667h768zM896 490.667c23.565 0 42.667-19.102 42.667-42.667s-19.102-42.667-42.667-42.667h-768c-23.564 0-42.667 19.102-42.667 42.667s19.103 42.667 42.667 42.667h768zM896 746.667c23.565 0 42.667-19.103 42.667-42.667s-19.102-42.667-42.667-42.667h-768c-23.564 0-42.667 19.103-42.667 42.667s19.103 42.667 42.667 42.667h768z" />
<glyph unicode="&#xe914;" glyph-name="chevron-left-slim" d="M682.667 64c-10.923 0-21.845 4.181-30.165 12.501l-341.333 341.333c-16.683 16.683-16.683 43.648 0 60.331l341.333 341.333c16.683 16.683 43.648 16.683 60.331 0s16.683-43.648 0-60.331l-311.168-311.168 311.168-311.168c16.683-16.683 16.683-43.648 0-60.331-8.32-8.32-19.243-12.501-30.165-12.501z" />
<glyph unicode="&#xe915;" glyph-name="arrow-right-condensed" d="M584.867 665.624l5.011 5.675c21.715 21.714 55.881 23.384 79.511 5.011l5.674-5.011 183.2-183.354 3.325-4.086 4.313-6.701 3.223-6.79 2.132-6.346 1.741-8.908 0.416-7.114-0.169-4.532-1.048-7.559-1.777-6.711-2.65-6.691-3.15-5.872-4.439-6.309-4.409-4.919-180.706-180.705c-23.522-23.522-61.663-23.522-85.185 0-21.714 21.715-23.384 55.88-5.011 79.511l5.011 5.674 77.831 77.878h-456.885c-33.267 0-60.235 26.969-60.235 60.235s26.969 60.235 60.235 60.235h456.885l-77.831 77.878c-21.714 21.714-23.384 55.881-5.011 79.511v0z" />
<glyph unicode="&#xe916;" glyph-name="chevron-right-slim" d="M341.333 64c10.923 0 21.845 4.181 30.165 12.501l341.334 341.333c16.683 16.683 16.683 43.648 0 60.331l-341.334 341.333c-16.683 16.683-43.648 16.683-60.331 0s-16.683-43.648 0-60.331l311.168-311.168-311.168-311.168c-16.683-16.683-16.683-43.648 0-60.331 8.32-8.32 19.243-12.501 30.165-12.501z" />
<glyph unicode="&#xe917;" glyph-name="phone2" horiz-adv-x="1088" d="M224 832h128c67.479 0 122.763-52.216 127.649-118.447l0.351-9.553v-128c0-32.822-24.707-59.873-56.536-63.569l-7.464-0.431h-60.021l11.13-19.53c53.66-90.244 131.117-167.702 221.361-221.36l19.53-11.13v60.019c0 32.822 24.707 59.873 56.538 63.569l7.462 0.431h128c67.482 0 122.765-52.216 127.648-118.445l0.352-9.555v-128c0-35.347-28.653-64-64-64-369.172 0-704 334.828-704 704 0 32.822 24.707 59.873 56.536 63.569l7.464 0.431zM690.746 685.255l128 128c24.992 24.993 65.517 24.993 90.509 0 23.072-23.071 24.845-59.374 5.325-84.481l-5.325-6.029-82.746-82.745 82.746-82.745c24.992-24.994 24.992-65.516 0-90.51-23.072-23.071-59.373-24.845-84.48-5.324l-6.029 5.324-128 128c-23.072 23.071-24.845 59.374-5.325 84.481l5.325 6.029z" />
<glyph unicode="&#xe918;" glyph-name="home" d="M170.667 384h-106.551c-57.006 0-85.555 68.937-45.246 109.255l447.885 448c24.988 24.994 65.503 24.994 90.491 0l447.887-448c40.303-40.317 11.759-109.255-45.252-109.255h-106.547v-362.667c0-47.13-38.205-85.333-85.333-85.333h-512c-47.128 0-85.333 38.204-85.333 85.333v362.667z" />
<glyph unicode="&#xe919;" glyph-name="envelop" horiz-adv-x="1229" d="M1228.8 826.88v-788.481c0-52.515-39.526-95.796-90.46-101.712l-11.94-0.687h-1023.999c-52.514 0-95.796 39.529-101.711 90.457l-0.689 11.942-0.001 788.481 546.971-455.945c38.607-33.782 96.254-33.782 134.862 0l546.968 455.945zM1068.339 960l-453.938-375.936-454.043 375.936h907.981z" />
<glyph unicode="&#xe91a;" glyph-name="company" d="M597.333 960c43.762 0 79.83-32.942 84.759-75.382l0.574-9.952v-170.667c0 43.762 32.942 79.83 75.382 84.759l9.952 0.574h170.667c43.759 0 79.829-32.942 84.762-75.382l0.572-9.952v-682.667c0-43.759-32.939-79.829-75.383-84.762l-9.95-0.572h-853.333c-43.762 0-79.83 32.939-84.759 75.383l-0.574 9.95v853.333c0 43.762 32.942 79.83 75.382 84.759l9.952 0.574h512zM426.667 277.333h-170.667c-47.128 0-85.333-38.205-85.333-85.333 0-43.762 32.942-79.83 75.382-84.759l9.952-0.574h170.667c47.128 0 85.333 38.205 85.333 85.333 0 43.762-32.942 79.83-75.382 84.759l-9.952 0.574zM426.667 533.333h-170.667c-47.128 0-85.333-38.205-85.333-85.333 0-43.762 32.942-79.83 75.382-84.759l9.952-0.574h170.667c47.128 0 85.333 38.205 85.333 85.333s-38.205 85.333-85.333 85.333zM426.667 789.333h-170.667c-47.128 0-85.333-38.205-85.333-85.333 0-43.762 32.942-79.83 75.382-84.759l9.952-0.574h170.667c47.128 0 85.333 38.205 85.333 85.333s-38.205 85.333-85.333 85.333z" />
<glyph unicode="&#xe91b;" glyph-name="dots" d="M832 256c0-70.692-57.308-128-128-128s-128 57.308-128 128c0 70.692 57.308 128 128 128s128-57.308 128-128zM448 256c0-70.692-57.308-128-128-128s-128 57.308-128 128c0 70.692 57.308 128 128 128s128-57.308 128-128zM832 640c0-70.692-57.308-128-128-128s-128 57.308-128 128c0 70.692 57.308 128 128 128s128-57.308 128-128zM448 640c0-70.692-57.308-128-128-128s-128 57.308-128 128c0 70.692 57.308 128 128 128s128-57.308 128-128z" />
<glyph unicode="&#xe91c;" glyph-name="facebook" d="M269.883 414.618h112.247v-462.103c0-9.122 7.392-16.515 16.516-16.515h190.317c9.126 0 16.519 7.393 16.519 16.515v459.928h129.036c8.389 0 15.45 6.296 16.404 14.627l19.599 170.124c0.541 4.68-0.946 9.368-4.076 12.879-3.133 3.515-7.623 5.526-12.329 5.526h-148.632v106.641c0 32.147 17.31 48.449 51.45 48.449 4.866 0 97.182 0 97.182 0 9.126 0 16.519 7.396 16.519 16.516v156.157c0 9.124-7.393 16.516-16.519 16.516h-133.927c-0.946 0.046-3.043 0.122-6.136 0.122-23.237 0-104.010-4.562-167.817-63.26-70.695-65.047-60.868-142.93-58.519-156.434v-124.703h-117.836c-9.123 0-16.516-7.393-16.516-16.516v-167.95c0-9.122 7.392-16.519 16.516-16.519z" />
<glyph unicode="&#xe91d;" glyph-name="youtube" horiz-adv-x="1344" d="M1306.016 788.246c-5.619 21.449-16.384 41.287-31.406 57.877s-33.872 29.458-54.993 37.541c-204.404 77.033-529.729 76.335-547.617 76.335s-343.215 0.698-547.617-76.335c-21.122-8.083-39.972-20.95-54.995-37.541s-25.787-36.429-31.405-57.877c-15.443-58.066-33.809-164.189-33.809-340.247s18.365-282.183 33.809-340.248c5.61-21.459 16.371-41.307 31.394-57.909s33.877-29.478 55.006-37.567c195.816-73.715 502.299-76.275 543.682-76.275h7.871c41.383 0 348.044 2.56 543.682 76.275 21.13 8.090 39.985 20.965 55.007 37.567s25.783 36.45 31.392 57.909c15.445 58.181 33.81 164.192 33.81 340.248 0 176.058-18.365 282.181-33.81 340.247zM876.043 428.623l-286.208-186.181c-3.593-2.337-7.769-3.682-12.083-3.887s-8.606 0.739-12.413 2.729c-3.807 1.99-6.99 4.951-9.207 8.566-2.222 3.615-3.388 7.751-3.388 11.967v372.362c0 4.214 1.166 8.35 3.388 11.967 2.217 3.617 5.4 6.577 9.207 8.566s8.099 2.932 12.413 2.728c4.314-0.204 8.49-1.547 12.083-3.886l286.208-186.18c3.272-2.124 5.957-5.004 7.814-8.388 1.852-3.379 2.827-7.155 2.827-10.988s-0.975-7.609-2.827-10.988c-1.857-3.384-4.541-6.264-7.814-8.388z" />
<glyph unicode="&#xe91e;" glyph-name="checkmark" d="M422.83 213.508l-264.66 264.661c-16.663 16.661-43.677 16.661-60.34 0-16.662-16.666-16.662-43.678 0-60.339l298.667-298.667c18.088-18.091 47.915-16.307 63.719 3.806l469.333 597.335c14.558 18.529 11.341 45.351-7.189 59.91s-45.35 11.34-59.908-7.189l-439.622-559.517z" />
<glyph unicode="&#xe91f;" glyph-name="chevron-left" d="M635 775c8.465-0.027 16.837-1.679 24.625-5s14.745-8.158 20.625-14.25c5.879-6.092 10.581-13.35 13.625-21.25s4.397-16.288 4.125-24.75-2.204-16.812-5.75-24.5c-3.546-7.687-8.616-14.549-14.875-20.25l-222.25-222.25 224.125-224c5.777-5.979 10.327-13.142 13.375-20.875s4.518-15.94 4.375-24.25c-0.143-8.314-1.938-16.504-5.25-24.125-3.311-7.619-8.014-14.47-14-20.25-5.947-5.744-13.039-10.328-20.75-13.375-7.73-3.048-16.057-4.646-24.375-4.5-8.322 0.134-16.503 1.936-24.125 5.25-7.618 3.312-14.473 8.145-20.25 14.125l-267.25 267.25c-11.868 11.867-18.625 27.973-18.625 44.75s6.757 32.883 18.625 44.75l268.625 268.625c5.894 5.996 12.871 10.751 20.625 14 7.809 3.272 16.283 4.902 24.75 4.875z" />
<glyph unicode="&#xe920;" glyph-name="speech" d="M0-64l170.667 170.667 768 0.109c47.13 0 85.333 38.201 85.333 85.324v682.576c0 47.123-38.204 85.324-85.333 85.324h-853.333c-47.128 0-85.333-38.201-85.333-85.324v-938.676z" />
<glyph unicode="&#xe921;" glyph-name="bulb" horiz-adv-x="683" d="M498.281 227.499c0 2.104 0.702 4.069 0.844 6.173h-314.029c0-3.226 1.122-6.454 1.122-9.682v-39.709h312.064v43.218zM433.313 626.425c-0.073 24.549-9.877 48.069-27.263 65.402s-40.936 27.066-65.485 27.066c-24.6 0-48.191-9.77-65.585-27.166-17.393-17.393-27.165-40.984-27.165-65.582 0-24.6 9.772-48.191 27.165-65.585s40.984-27.165 65.585-27.165c24.6 0.112 48.155 9.962 65.512 27.397 17.354 17.432 27.097 41.033 27.097 65.634zM498.425 163.518h-312.204v-49.532h312.204v49.532zM186.22 93.501v-14.733c0.037-10.918 4.4-21.375 12.132-29.079 7.732-7.707 18.205-12.034 29.122-12.034h31.149c-0.458-11.11 1.336-22.201 5.271-32.602s9.933-19.9 17.635-27.924c7.7-8.024 16.942-14.409 27.173-18.771s21.238-6.61 32.358-6.61c11.12 0 22.128 2.248 32.358 6.61s19.473 10.747 27.173 18.771c7.702 8.024 13.7 17.523 17.635 27.924s5.73 21.492 5.271 32.602h33.675c5.41 0 10.769 1.068 15.765 3.143 4.998 2.075 9.535 5.115 13.356 8.948s6.846 8.382 8.904 13.388c2.058 5.003 3.106 10.364 3.087 15.774v14.034l-312.063 0.561zM656.981 706.121c-17.966 65.93-56.396 124.457-109.753 167.149s-118.891 67.344-187.156 70.407c-12.993 0.772-26.019 0.772-39.010 0-68.247-3.3-133.683-28.175-186.889-71.042s-91.434-101.514-109.179-167.496c-16.096-58.175-15.851-119.664 0.709-177.71 16.56-58.044 48.795-110.407 93.164-151.333 34.479-31.99 57.084-74.73 64.124-121.234h148.175v259.586c-29.391 2.011-56.834 15.426-76.476 37.383-19.643 21.955-29.928 50.717-28.665 80.15 1.263 29.435 13.975 57.21 35.426 77.402 21.45 20.194 49.942 31.209 79.397 30.694 28.96-0.181 56.747-11.465 77.634-31.526s33.282-47.37 34.631-76.298c1.351-28.93-8.45-57.273-27.38-79.192-18.929-21.916-45.544-35.738-74.362-38.615l0.702-259.586h149.577c6.58 46.792 28.901 89.946 63.283 122.358 44.173 41.131 76.161 93.64 92.45 151.759 16.286 58.122 16.245 119.606-0.122 177.703z" />
<glyph unicode="&#xe922;" glyph-name="gear" horiz-adv-x="1117" d="M1009.836 583.283l-63.218-35.717c-15.923-11.268-28.909-26.189-37.869-43.513-8.965-17.323-13.642-36.541-13.642-56.049 0-19.503 4.678-38.726 13.642-56.050 8.96-17.324 21.946-32.242 37.869-43.511l63.041-35.719c-21.215-69.711-58.252-133.581-108.223-186.619l-62.506 35.714c-17.725 8.215-37.162 12.041-56.678 11.166-19.512-0.88-38.53-6.437-55.445-16.207-16.915-9.775-31.232-23.468-41.742-39.936-10.51-16.463-16.905-35.216-18.646-54.672v-72.504c-70.949-17.143-144.961-17.143-215.91 0v72.504c-1.741 19.456-8.137 38.209-18.648 54.672-10.51 16.468-24.828 30.161-41.742 39.936-16.915 9.77-35.932 15.327-55.446 16.207-19.514 0.875-38.953-2.951-56.677-11.166l-62.683-35.714c-50.008 53.011-87.050 116.89-108.221 186.619l63.22 35.719c15.955 11.241 28.975 26.154 37.962 43.483 8.987 17.324 13.677 36.561 13.677 56.078 0 19.521-4.69 38.754-13.677 56.078-8.987 17.327-22.007 32.24-37.962 43.483l-63.22 35.717c21.214 69.715 58.25 133.584 108.221 186.622l62.504-35.717c17.74-8.164 37.181-11.955 56.688-11.056s38.515 6.461 55.429 16.222c16.914 9.76 31.242 23.433 41.782 39.873s16.985 35.167 18.794 54.612v72.506c70.889 17.147 144.84 17.147 215.729 0v-72.506c1.536-19.612 7.796-38.562 18.25-55.227s24.79-30.549 41.779-40.466c16.989-9.917 36.129-15.57 55.78-16.478s39.229 2.96 57.060 11.27l62.687 35.717c49.999-52.948 87.040-116.766 108.218-186.443l-0.177 1.071zM558.732 630.43c-36.506 0.035-72.197-10.772-102.55-31.049s-54.003-49.113-67.948-82.849c-13.945-33.735-17.557-70.855-10.379-106.644 7.178-35.793 24.825-68.645 50.7-94.394s58.814-43.236 94.64-50.241c35.826-7.005 72.923-3.212 106.589 10.896 33.671 14.108 62.39 37.897 82.52 68.352 20.126 30.45 30.762 66.197 30.548 102.698 0 48.881-19.414 95.758-53.979 130.321s-81.441 53.981-130.318 53.981zM645.581 447.213c0-17.203-5.106-34.020-14.662-48.319-9.556-14.303-23.138-25.451-39.028-32.033-15.891-6.586-33.378-8.308-50.25-4.952-16.868 3.356-32.368 11.641-44.53 23.803s-20.447 27.662-23.803 44.53c-3.356 16.873-1.634 34.36 4.948 50.25 6.586 15.892 17.734 29.475 32.033 39.031 14.303 9.557 31.12 14.657 48.323 14.657 23.063 0 45.186-9.163 61.496-25.473s25.474-38.432 25.474-61.495zM1017.721 512.75c12.963 0 25.637-3.844 36.413-11.046 10.78-7.2 19.181-17.435 24.143-29.412 4.957-11.976 6.256-25.158 3.728-37.869-2.527-12.716-8.769-24.394-17.939-33.559-9.165-9.165-20.843-15.407-33.559-17.939-12.712-2.527-25.889-1.229-37.865 3.733s-22.211 13.359-29.417 24.138c-7.201 10.78-11.045 23.45-11.045 36.413 0 17.385 6.907 34.053 19.2 46.345 12.288 12.291 28.961 19.196 46.341 19.196zM99.448 512.75c12.963 0 25.634-3.844 36.413-11.046 10.778-7.2 19.178-17.435 24.139-29.412s6.259-25.158 3.73-37.869c-2.529-12.716-8.771-24.394-17.937-33.559s-20.843-15.407-33.556-17.939c-12.713-2.527-25.893-1.229-37.868 3.733s-22.211 13.359-29.412 24.138c-7.202 10.78-11.046 23.45-11.046 36.413 0 17.385 6.904 34.053 19.195 46.345 12.291 12.291 28.962 19.196 46.344 19.196zM844.851 82.53c6.516-11.222 9.56-24.125 8.737-37.078-0.824-12.949-5.474-25.363-13.363-35.672-7.885-10.305-18.655-18.036-30.943-22.216-12.283-4.18-25.535-4.617-38.070-1.257s-23.789 10.366-32.34 20.126c-8.55 9.765-14.010 21.848-15.686 34.714-1.676 12.87 0.507 25.949 6.27 37.576s14.848 21.281 26.103 27.741c15.034 8.574 32.847 10.868 49.566 6.386 16.719-4.478 30.995-15.374 39.727-30.32zM385.914 877.6c6.574-11.248 9.656-24.196 8.855-37.2s-5.449-25.475-13.352-35.832c-7.904-10.357-18.706-18.131-31.037-22.334s-25.634-4.647-38.218-1.275c-12.584 3.373-23.882 10.409-32.458 20.216s-14.046 21.942-15.711 34.863c-1.665 12.921 0.547 26.046 6.357 37.707s14.954 21.332 26.271 27.785c15.036 8.574 32.846 10.869 49.564 6.389s30.995-15.376 39.728-30.319zM385.854 16.808c-6.436-11.325-16.093-20.48-27.743-26.307s-24.767-8.057-37.688-6.414c-12.921 1.643-25.062 7.089-34.882 15.649-9.82 8.555-16.875 19.838-20.27 32.414s-2.977 25.875 1.201 38.214c4.178 12.335 11.927 23.152 22.264 31.078 10.338 7.922 22.797 12.595 35.796 13.424 12.999 0.833 25.951-2.22 37.213-8.765 14.974-8.704 25.905-22.97 30.42-39.689s2.247-34.546-6.311-49.603zM844.884 811.873c-6.442-11.263-16.077-20.361-27.695-26.14s-24.688-7.981-37.553-6.326c-12.87 1.656-24.962 7.093-34.737 15.624s-16.798 19.772-20.177 32.298c-3.384 12.526-2.97 25.775 1.182 38.067s11.86 23.074 22.146 30.982c10.291 7.907 22.691 12.583 35.635 13.436 12.949 0.853 25.856-2.156 37.092-8.646 14.974-8.704 25.907-22.967 30.422-39.688s2.243-34.548-6.316-49.606z" />
<glyph unicode="&#xe923;" glyph-name="gear2" horiz-adv-x="931" d="M916.75 583.284l-63.041-35.717c-15.956-11.243-28.975-26.156-37.962-43.483s-13.68-36.559-13.68-56.076c0-19.521 4.692-38.754 13.68-56.083 8.988-17.324 22.007-32.237 37.962-43.483l63.041-35.714c-21.146-69.748-58.191-133.632-108.223-186.624l-62.506 35.719c-17.725 8.211-37.162 12.041-56.678 11.162-19.512-0.875-38.53-6.437-55.445-16.207s-31.232-23.464-41.742-39.931c-10.51-16.463-16.905-35.216-18.646-54.672v-72.504c-70.889-17.147-144.843-17.147-215.731 0v72.504c-1.77 19.461-8.192 38.214-18.722 54.677s-24.862 30.152-41.788 39.922c-16.927 9.765-35.952 15.323-55.474 16.202s-38.972-2.946-56.708-11.152l-62.684-35.719c-49.945 53.057-86.978 116.922-108.221 186.624l63.218 35.714c15.955 11.245 28.975 26.159 37.962 43.483 8.987 17.329 13.68 36.561 13.68 56.083 0 19.517-4.692 38.749-13.68 56.076s-22.007 32.24-37.962 43.483l-63.218 35.717c21.285 69.684 58.312 133.538 108.221 186.621l62.684-35.717c17.728-8.17 37.159-11.965 56.658-11.067s38.498 6.462 55.4 16.225c16.903 9.764 31.214 23.441 41.734 39.883s16.941 35.17 18.722 54.609v72.505c70.888 17.147 144.84 17.147 215.728 0v-72.505c1.731-19.48 8.127-38.257 18.651-54.743 10.519-16.485 24.855-30.195 41.793-39.97 16.943-9.775 35.984-15.326 55.524-16.186 19.535-0.86 38.996 2.999 56.725 11.248l62.506 35.717c50.064-52.9 87.114-116.734 108.223-186.442v-0.179zM465.464 631.681c-36.441 0-72.068-10.804-102.373-31.048s-53.926-49.016-67.88-82.682c-13.954-33.664-17.613-70.715-10.516-106.457 7.097-35.747 24.631-68.589 50.388-94.371s58.578-43.348 94.317-50.479c35.739-7.131 72.788-3.505 106.468 10.417s62.478 37.516 82.749 67.798c20.271 30.287 31.111 65.899 31.148 102.344-0.047 48.864-19.479 95.713-54.035 130.266-34.551 34.553-81.399 53.985-130.267 54.033zM552.397 447.199c0-17.199-5.101-34.015-14.657-48.319s-23.138-25.446-39.033-32.033c-15.891-6.582-33.378-8.304-50.249-4.948s-32.365 11.641-44.528 23.803c-12.163 12.162-20.448 27.657-23.803 44.53-3.356 16.868-1.634 34.355 4.948 50.25 6.583 15.89 17.731 29.473 32.033 39.029s31.118 14.657 48.319 14.657c23.068 0 45.186-9.163 61.496-25.473 16.314-16.311 25.474-38.43 25.474-61.498z" />
<glyph unicode="&#xe924;" glyph-name="lock" horiz-adv-x="731" d="M569.83 544.549v204.863c0.933 27.682-3.646 55.274-13.477 81.169-9.827 25.895-24.708 49.578-43.769 69.671-19.098 19.709-42.112 35.199-67.562 45.47-25.446 10.271-52.765 15.096-80.193 14.165-27.183 0.81-54.234-4.077-79.414-14.347s-47.935-25.697-66.796-45.287c-18.944-20.165-33.726-43.866-43.501-69.749s-14.351-53.439-13.466-81.092v-204.863c-53.875-42.423-93.191-100.582-112.478-166.389s-17.587-135.984 4.863-200.781c22.449-64.794 64.533-120.982 120.398-160.75s122.734-61.136 191.309-61.136c68.571 0 135.439 21.369 191.305 61.136s97.949 95.956 120.397 160.75c22.451 64.797 24.152 134.974 4.864 200.781s-58.602 123.966-112.479 166.389zM202.904 572.613v176.798c-0.948 22.394 2.587 44.752 10.394 65.763s19.73 40.251 35.071 56.594c14.996 15.61 33.125 27.869 53.198 35.971s41.634 11.863 63.264 11.035c21.906 0.925 43.757-2.798 64.12-10.924s38.777-20.47 54.027-36.222c15.419-16.271 27.414-35.473 35.269-56.467 7.859-20.994 11.421-43.353 10.474-65.749v-177.080c-49.624 28.325-105.772 43.222-162.907 43.222-57.137 0-113.288-14.897-162.909-43.222v0.282zM393.172 279.632l27.224-147.474h-109.728l28.063 147.474c-18.334 6.455-33.795 19.189-43.645 35.946s-13.456 36.462-10.181 55.621c3.275 19.16 13.222 36.542 28.080 49.079 14.858 12.533 33.669 19.408 53.106 19.408s38.25-6.875 53.109-19.408c14.859-12.537 24.806-29.919 28.080-49.079 3.277-19.16-0.329-38.864-10.181-55.621-9.849-16.757-25.307-29.491-43.644-35.946zM407.077 356.944c0.029 8.166-2.366 16.157-6.883 22.96s-10.949 12.112-18.487 15.254c-7.534 3.145-15.832 3.983-23.845 2.406-8.012-1.576-15.376-5.493-21.159-11.257s-9.725-13.115-11.329-21.12c-1.603-8.009-0.794-16.311 2.324-23.856s8.404-13.996 15.191-18.538c6.787-4.539 14.77-6.96 22.934-6.96 10.917 0 21.387 4.326 29.122 12.032 7.731 7.706 12.094 18.161 12.131 29.078z" />
<glyph unicode="&#xe925;" glyph-name="filter" d="M320.042 427.534l-308.012 431.276c-30.25 42.356 0.022 101.192 52.068 101.192h895.802c52.044 0 82.314-58.836 52.068-101.192l-308.012-431.276v-299.466c0-24.24-13.694-46.4-35.37-57.24l-255.944-127.99c-42.544-21.278-92.6 9.668-92.6 57.24v427.454z" />
<glyph unicode="&#xe926;" glyph-name="pdf" horiz-adv-x="964" d="M93.966 896.332c-19.24-5.058-36.016-13.662-50.384-25.144l0.268 0.208c-19.274-16.564-32.046-35.84-39.394-59.452l-3.614-11.746-0.482-375.868c-0.482-425.924-1.446-392.552 12.408-420.864 15.602-31.744 43.85-55.116 76.8-63.548 11.806-3.012 21.624-3.132 392.192-3.072 416.586 0 388.156-0.664 410.684 9.518 35.544 16.578 61.398 48.786 68.906 87.538l0.124 0.768c3.374 18.974 3.254 601.63-0.12 617.712-5.422 25.66-2.35 22.046-112.218 131.976-108.484 108.544-106.254 106.616-129.928 112.218-15.058 3.554-608.256 3.314-625.242-0.24zM663.37 757.128c0-90.776 0.182-92.28 10.058-110.892 10.12-18.914 27.89-34.454 48.792-42.526l11.024-4.276 171.188-1.024-0.482-277.384-0.422-277.384-3.736-9.276c-6.626-16.384-22.226-30.538-39.634-36.082-9.456-2.952-747.098-2.952-756.554 0-17.9 6-32.058 19-39.468 35.664l-0.166 0.418-3.734 9.276-0.422 366.23c-0.302 253.288 0.060 369.664 1.266 377.434 2.464 17.836 12.468 32.938 26.636 42.204l0.228 0.14c15.962 10.24-1.626 9.638 300.392 9.758l275.034 0.12v-82.402zM889.856 659.246c0-0.664-31.986-1.204-71.078-1.204-65.716 0.060-71.56 0.3-77.462 3.012-7.446 3.478-13.302 9.316-16.716 16.536l-0.090 0.21c-1.084 2.952-1.688 29.756-1.688 77.1v72.584l83.546-83.546c28.052-27.678 55.264-55.274 82.098-83.236l1.388-1.456zM168.056 446.012c-6.718-2.504-12.004-7.516-14.812-13.87l-0.064-0.166c-2.952-6.986-3.254-318.464-0.3-328.404 3.494-11.746 16.866-18.674 32.408-16.806 10.722 1.264 17.288 5.48 21.504 13.854 3.554 6.928 3.614 8.494 3.614 56.38v49.212l11.504 1.144c49.612 5.098 90.048 39.356 104.158 85.154l0.228 0.862c5.42 17.468 5.42 50.056 0 67.464-12.182 39.108-42.284 69.328-80.446 81.44l-0.872 0.24c-11.144 3.374-16.806 3.976-42.586 4.456-16.324 0.302-31.804-0.12-34.334-0.964zM409.058 445.35c-8.312-3.072-13.072-7.832-15.3-15.24-2.65-8.914-2.59-317.68 0.060-326.536 3.856-12.89 16.264-18.432 37.466-16.684 65.542 4.75 119.222 50.462 135.824 111.456l0.246 1.064c3.374 12.168 3.614 15.842 3.614 67.464 0 51.682-0.24 55.356-3.614 67.464-13.268 47.976-47.958 85.856-92.858 103.246l-1.048 0.356c-21.564 8.010-53.128 11.626-64.392 7.408zM705.174 445.77c-31.562-5.24-62.284-34.996-69.874-67.764-3.674-15.66-2.89-270.818 0.784-278.106 6.866-13.552 31.020-17.95 45.356-8.312 9.818 6.626 10 7.89 10.542 63.97l0.422 50.9 35.72 0.482c32.226 0.482 36.202 0.842 41.14 3.736 9.034 5.302 11.986 10.782 12.71 23.13 0.842 14.818-3.192 24.274-12.348 28.972-6.024 3.072-9.336 3.312-41.924 3.312h-35.418v48.67c0 47.224 0.12 48.85 3.614 55.778 2.678 4.808 6.24 8.81 10.496 11.914l7.030 4.89 41.26 0.842c36.682 0.722 41.744 1.144 46.2 3.794 6.808 4.156 10.36 10.662 11.446 21.082 1.746 17.288-4.88 29.094-18.492 32.828-7.288 2.048-76.258 1.928-88.666-0.12zM224.014 385.716c15.058-2.47 33.13-16.504 40.658-31.684 3.942-7.774 6.252-16.95 6.252-26.666 0-16.418-6.596-31.298-17.282-42.13l0.008 0.006c-7.8-8.138-17.896-14.020-29.242-16.61l-0.394-0.076c-5.646-0.904-9.038-1.534-12.412-2.21l2.412 0.404-3.614-0.722v122.216l3.614-0.784c1.988-0.36 6.504-1.206 9.998-1.746zM464.776 376.5c13.372-7.048 30.962-24.876 37.586-38.13 8.976-17.89 10.36-28.852 9.698-77.1-0.542-39.334-0.844-43.37-4.276-53.006-8.060-22.114-23.404-39.956-43.072-51.014l-0.478-0.246c-3.168-1.876-6.834-3.548-10.68-4.824l-0.404-0.116c-1.264 0-1.808 31.744-1.808 114.808 0 83.126 0.542 114.87 1.808 114.87 0.964 0 6.204-2.35 11.626-5.24z" />
<glyph unicode="&#xe927;" glyph-name="hyperlink" horiz-adv-x="910" d="M694.044 902.314c-38.51-3.768-73.192-17.624-102.12-38.86l0.574 0.402c-17.408-12.972-116.052-112.128-127.26-127.942-22.168-30.264-35.884-67.952-37.028-108.784l-0.006-0.272c-1.024-27.988 1.594-36.238 13.54-42.496 6.372-3.3 21.788-2.674 29.752 1.138 9.842 4.778 11.89 10.582 12.914 36.978 1.252 32.996 9.9 57.97 28.558 82.66 11.322 14.962 105.644 108.486 117.362 116.338 16.838 11.32 36.75 19.342 57.97 23.324 13.54 2.56 43.804 1.024 58.822-2.958 61.346-16.524 105.756-71.656 105.756-137.162 0-0.118 0-0.24 0-0.358v0.020c0.058-31.346-6.94-53.988-25.030-81.124-10.524-15.814-106.552-111.73-122.028-121.914-24.804-16.27-43.292-22.016-76.346-23.552-19.514-0.91-24.52-1.594-28.786-4.096-7.168-4.21-10.808-11.15-11.72-22.584-1.48-18.432 7.054-28.046 26.966-30.378 8.932-1.082 40.106 1.366 51.428 3.982 28.048 6.9 52.704 18.068 74.646 32.942l-0.804-0.514c15.702 10.98 124.132 119.866 133.746 134.258 15.132 22.756 24.52 45.17 30.89 73.558 2.274 11.88 3.576 25.544 3.576 39.51 0 13.742-1.26 27.192-3.672 40.236l0.208-1.354c-5.728 27.456-16.222 51.744-30.668 73.144l0.46-0.724c-14.966 20.438-32.38 37.924-52.076 52.498l-0.658 0.466c-31.904 21.434-71.182 34.21-113.442 34.21-5.464 0-10.876-0.214-16.232-0.634l0.708 0.046zM643.982 674.588c-6.144-3.356-412.104-410.168-415.176-416.084-3.982-7.624-3.014-15.588 2.788-24.006 8.42-12.174 21.902-17.522 33.394-13.198 5.916 2.162 412.444 408.52 416.426 416.2 5.86 11.264 0.172 25.656-13.54 34.36-7.51 4.778-17.92 5.974-23.894 2.73zM269.254 475.192l-16.498-2.276c-16.668-2.276-34.816-7.794-51.94-15.814-28.9-13.482-36.296-19.57-96.654-79.532-30.72-30.492-59.62-60.472-64.284-66.616-16.166-21.742-28.286-47.522-34.668-75.486l-0.262-1.37c-5.006-21.504-5.632-57.684-1.366-78.108 10.354-49.778 33.964-89.26 71.224-119.126 35.556-28.5 77.938-43.35 123.79-43.35 41.016 0 78.45 11.264 112.412 33.906 14.904 9.956 122.084 116.338 134.372 133.404 23.036 31.65 36.85 71.3 36.85 114.176 0 1.46-0.016 2.918-0.048 4.37l0.004-0.216c-0.626 21.22-3.13 27.706-12.516 32.142-7.338 3.47-22.642 3.186-30.436-0.568-10.24-4.948-11.948-9.5-13.198-35.668-1.194-26.396-5.062-42.154-15.246-62.52-9.274-18.602-20.366-31.346-72.704-83.284-38.002-37.716-50.404-49.038-61.498-56.32-40.276-26.452-94.038-30.492-136.532-10.354-49.434 23.23-83.046 72.61-83.046 129.836 0 16.85 2.914 33.018 8.266 48.030l-0.312-1c8.76 25.316 18.602 38.058 67.698 87.78 61.554 62.294 73.102 71.736 100.124 82.26 16.326 6.316 29.638 8.76 52.11 9.388 22.016 0.682 27.364 2.616 32.712 11.776 2.38 4.948 3.774 10.758 3.774 16.894 0 4.944-0.904 9.678-2.556 14.044l0.092-0.274c-4.494 10.126-11.662 13.426-30.548 14.052-2.352 0.106-5.108 0.166-7.882 0.166-3.952 0-7.876-0.122-11.766-0.362l0.534 0.026z" />
<glyph unicode="&#xe928;" glyph-name="clock-outlined" d="M511.994 959.996c282.767 0 512.001-229.23 512.001-511.999 0-282.766-229.232-511.998-512.001-511.998s-511.999 229.232-511.999 511.998c0 282.77 229.23 511.999 511.999 511.999zM511.994 857.596c-226.215 0-409.599-183.384-409.599-409.599 0-226.219 183.384-409.601 409.599-409.601 226.213 0 409.602 183.382 409.602 409.601 0 226.215-183.391 409.599-409.602 409.599zM511.994 755.196c26.257 0 47.898-19.765 50.856-45.229l0.344-5.971v-234.792l87.403-87.403c19.994-19.994 19.994-52.412 0-72.408-18.457-18.456-47.5-19.877-67.585-4.259l-4.823 4.259-102.401 102.399c-8.002 8.002-13.080 18.379-14.552 29.474l-0.444 6.73v255.999c0 28.277 22.924 51.2 51.2 51.2z" />
<glyph unicode="&#xe929;" glyph-name="circled-calendar" d="M512 960c-282.58 0-512-229.42-512-512s229.42-512 512-512c282.58 0 512 229.42 512 512s-229.42 512-512 512zM512 928c265.286 0 480-214.714 480-480s-214.714-480-480-480c-265.286 0-480 214.714-480 480s214.714 480 480 480zM618.666 661.328c11.779 0 21.331-9.551 21.331-21.334v-21.331h21.334c35.347 0 64-28.656 64-64v-256c0-35.347-28.653-64-64-64h-298.666c-35.347 0-64.002 28.653-64.002 64v256c0 35.344 28.654 64 64.002 64h21.331v21.331c0 11.783 9.552 21.334 21.334 21.334s21.334-9.551 21.334-21.334v-21.331h170.666v21.331c0 11.783 9.552 21.334 21.334 21.334zM341.331 447.994v-149.331c0-11.782 9.552-21.334 21.334-21.334h298.666c11.782 0 21.334 9.552 21.334 21.334v149.331zM341.331 490.662h341.334v64c0 11.782-9.552 21.331-21.334 21.331h-21.334v-21.331c0-11.782-9.552-21.334-21.331-21.334-11.782 0-21.334 9.552-21.334 21.334v21.331h-170.666v-21.331c0-11.782-9.552-21.334-21.334-21.334s-21.334 9.552-21.334 21.334v21.331h-21.331c-11.782 0-21.334-9.549-21.334-21.331z" />
<glyph unicode="&#xe92a;" glyph-name="circled-clock" d="M512 960c-282.58 0-512-229.42-512-512s229.42-512 512-512c282.58 0 512 229.42 512 512s-229.42 512-512 512zM512 928c265.286 0 480-214.714 480-480s-214.714-480-480-480c-265.286 0-480 214.714-480 480s214.714 480 480 480zM511.997 661.328c117.821 0 213.334-95.514 213.334-213.334s-95.514-213.331-213.334-213.331c-117.821 0-213.333 95.51-213.333 213.331s95.512 213.334 213.333 213.334zM511.997 618.662c-94.256 0-170.666-76.41-170.666-170.669 0-94.256 76.41-170.666 170.666-170.666s170.669 76.41 170.669 170.666c0 94.259-76.413 170.669-170.669 170.669zM511.997 575.994c10.941 0 19.958-8.234 21.19-18.845l0.144-2.486v-97.83l36.419-36.419c8.33-8.33 8.33-21.84 0-30.17-7.693-7.69-19.792-8.282-28.16-1.776l-2.013 1.776-42.666 42.666c-3.334 3.334-5.45 7.658-6.064 12.282l-0.182 2.803v106.669c0 11.782 9.549 21.331 21.331 21.331z" />
<glyph unicode="&#xe92b;" glyph-name="circled-mapicon" d="M512 960c-282.58 0-512-229.42-512-512s229.42-512 512-512c282.58 0 512 229.42 512 512s-229.42 512-512 512zM512 928c265.286 0 480-214.714 480-480s-214.714-480-480-480c-265.286 0-480 214.714-480 480s214.714 480 480 480zM512 661.328c106.038 0 192-85.027 192-189.917 0-69.408-58.077-142.794-171.77-222.736l-20.23-14.013-12.208 8.422c-118.982 82.118-179.792 157.306-179.792 228.326 0 104.89 85.962 189.917 192 189.917zM512 619.123c-82.474 0-149.334-66.131-149.334-147.712 0-51.254 48.998-113.795 149.334-185.162 100.336 71.366 149.334 133.907 149.334 185.162 0 81.581-66.861 147.712-149.334 147.712zM512 575.994c47.13 0 85.334-38.205 85.334-85.331 0-47.13-38.205-85.334-85.334-85.334s-85.334 38.205-85.334 85.334c0 47.126 38.205 85.331 85.334 85.331zM512 533.328c-23.565 0-42.666-19.101-42.666-42.666s19.101-42.669 42.666-42.669c23.565 0 42.666 19.104 42.666 42.669s-19.101 42.666-42.666 42.666z" />
<glyph unicode="&#xe92c;" glyph-name="csv" d="M72.212 957.42c-36.039-8.176-63.691-36.667-70.524-72.539l-0.091-0.575c-2.376-12.616-2.13-822.723 0.287-834.314 6.84-33.137 35.471-62.669 68.239-70.41 9.585-2.253 61.276-2.58 421.396-2.58 452.608 0 421.151-0.737 442.737 10.65 13.312 7.086 31.007 24.781 38.093 38.093 11.387 21.586 10.65-9.871 10.65 442.737 0 360.12-0.328 411.812-2.58 421.396-7.782 33.014-36.209 60.457-69.919 67.543-17.080 3.604-821.74 3.604-838.287 0zM902.39 895.939c8.479-3.523 12.288-7.168 16.015-15.319 2.99-6.554 3.113-22.446 3.113-412.14 0-392.233-0.082-405.545-3.195-412.344-2.425-4.73-5.66-8.711-9.561-11.909l-0.065-0.052-6.472-4.915-407.142-0.492c-369.295-0.41-407.88-0.205-414.392 2.294-8.527 3.318-14.987 10.303-17.52 18.964l-0.051 0.205c-1.27 4.424-1.679 127.508-1.311 411.771l0.492 405.463 4.547 6.881c3.111 4.404 7.12 7.967 11.779 10.478l0.181 0.089 7.373 3.645h404.972c360.571 0 405.627-0.287 411.238-2.621zM285.409 558.797c-51.692-7.905-99.697-46.203-118.743-94.7-9.667-24.74-10.486-31.662-10.486-87.777 0-45.67 0.369-53.617 3.236-64.799 10.609-41.452 33.178-73.196 68.035-95.805 30.679-19.825 82.166-29.819 99.901-19.374 16.097 9.503 16.261 43.131 0.246 52.593-3.441 2.048-11.059 3.645-21.832 4.547-32.973 2.867-54.6 14.828-72.131 39.813-14.664 20.89-16.015 27.935-16.015 83.026 0 55.009 1.352 62.177 15.892 82.862 17.531 24.986 38.871 36.7 72.376 39.895 10.445 0.983 18.473 2.703 21.75 4.628 15.974 9.462 15.811 43.090-0.287 52.593-6.513 3.85-25.6 4.997-41.943 2.499zM477.88 559.493c-18.104-3.236-36.045-12.698-49.398-26.051-30.392-30.392-35.635-73.646-14.295-117.801 6.676-13.844 10.035-18.391 23.347-31.621 8.561-8.52 25.559-23.224 37.765-32.686 36.7-28.508 46.49-41.247 48.21-62.874 0.655-8.274 0.123-11.878-2.58-17.203-8.233-16.138-13.763-17.818-58.614-17.818-22.692 0-38.584-0.737-42.803-2.007-13.517-4.055-20.398-18.227-17.654-36.454 1.434-9.708 9.052-18.842 17.695-21.217 10.24-2.826 82.78-2.171 95.683 0.86 31.457 7.414 59.269 34.816 67.543 66.56 5.857 22.569 1.761 53.002-10.486 77.332-8.643 17.203-24.699 33.833-58.573 60.867-32.072 25.518-39.567 33.178-45.752 46.694-9.011 19.62-5.12 39.199 9.544 48.333 6.021 3.768 8.233 3.973 48.128 4.792 47.514 0.983 50.094 1.638 56.361 14.582 7.086 14.582 2.662 35.594-8.97 42.639-5.12 3.113-9.011 3.4-48.21 3.604-4.282 0.082-9.332 0.129-14.393 0.129-11.447 0-22.837-0.24-34.167-0.716l1.619 0.054zM664.74 558.674c-7.617-2.96-13.481-8.985-16.16-16.519l-0.060-0.193c-2.703-9.789-2.089-129.966 0.819-157.123 6.021-56.279 21.873-106.168 48.742-153.354 21.791-38.257 30.228-45.179 47.923-39.24 9.953 3.318 16.384 9.503 26.051 25.149 17.722 28.205 32.614 60.731 43.007 95.208l0.738 2.851c12.984 45.015 15.237 67.707 15.278 153.764 0.082 66.191-0.123 70.246-3.318 76.841-4.178 8.602-11.059 12.861-22.897 14.090-16.302 1.679-29.983-5.775-33.464-18.186-0.942-3.523-1.679-33.505-1.679-70.984 0-79.462-2.785-106.578-14.868-144.957-5.284-16.835-14.213-38.461-15.852-38.461-1.556 0-10.158 21.832-16.015 40.468-11.592 37.069-14.705 69.263-14.705 152.125 0 55.214-0.246 59.351-3.4 65.905-2.092 4.122-5.044 7.534-8.641 10.101l-0.084 0.057c-6.39 3.768-24.084 5.161-31.416 2.458z" />
<glyph unicode="&#xe92d;" glyph-name="eps" d="M58.027 957.611c-19.2-4.267-38.101-18.133-48.213-35.456-10.496-17.877-9.813 14.635-9.813-474.155s-0.683-456.277 9.813-474.155c5.632-9.643 18.389-22.4 28.032-28.032 17.877-10.496-14.635-9.813 474.155-9.813s456.277-0.683 474.155 9.813c11.315 7.352 20.68 16.717 27.812 27.671l0.22 0.361c10.496 17.877 9.813-14.635 9.813 474.155 0 401.067-0.256 446.848-2.688 456.235-7.655 27.4-29.759 48.18-57.373 53.806l-0.483 0.082c-15.275 2.859-892.672 2.347-905.429-0.512zM956.459 892.459c2.432-2.432 2.688-45.099 2.688-444.459 0-399.147-0.256-442.027-2.688-444.459-1.762-1.627-3.909-2.863-6.288-3.556l-0.112-0.028c-2.048-0.512-200.96-0.683-442.027-0.427-431.659 0.469-438.357 0.512-440.747 3.797-2.091 2.816-2.432 66.219-2.432 444.885 0 399.147 0.256 441.813 2.688 444.245s45.099 2.688 444.459 2.688 442.027-0.256 444.459-2.688zM231.467 540.885c-15.317-3.755-29.653-12.245-42.88-25.472-13.227-13.184-21.333-26.88-25.472-42.923-3.968-15.445-4.053-224.981-0.085-240.469 7.829-28.003 26.893-50.539 51.898-62.845l0.582-0.259c17.664-8.064 30.421-9.6 75.435-9.003 37.376 0.469 41.515 0.811 46.805 3.925 10.709 6.315 12.971 11.179 12.971 28.16s-2.261 21.845-12.971 28.16c-5.291 3.115-9.344 3.456-45.056 3.883-21.589 0.256-41.771 0.853-44.843 1.365-6.528 1.024-16.427 9.216-20.395 16.768-1.963 3.712-3.029 11.307-3.541 25.259l-0.768 19.968 54.4 0.512c50.816 0.469 54.784 0.725 60.203 3.925 10.709 6.315 12.971 11.179 12.971 28.16s-2.261 21.845-12.971 28.16c-5.419 3.2-9.429 3.456-60.117 3.968l-54.272 0.555 0.512 52.352c0.597 55.125 0.683 55.851 8.875 64.896 8.235 9.045 10.795 9.515 57.387 10.453 39.424 0.811 44.032 1.195 49.109 4.267 17.621 10.667 16.384 46.549-1.963 55.424-6.784 3.285-10.155 3.499-51.541 3.371-31.957-0.128-47.019-0.811-54.272-2.56zM429.653 540.16c-4.164-2.476-7.502-5.95-9.745-10.102l-0.068-0.138c-3.413-6.699-3.456-9.003-3.029-179.925 0.469-172.971 0.469-173.099 4.053-177.92 6.272-8.405 13.824-11.648 27.136-11.648s20.864 3.243 27.136 11.648c3.456 4.608 3.584 6.955 4.096 59.904l0.469 55.125 11.477 1.152c45.694 4.418 84.016 32.195 103.216 71.099l0.336 0.752c10.368 21.333 13.525 37.163 12.416 62.123-1.579 34.645-11.947 58.411-36.267 83.072-13.821 14.499-31.009 25.664-50.317 32.25l-0.883 0.262c-12.8 4.352-15.787 4.693-48.64 5.248-32.555 0.512-35.413 0.341-41.387-2.901zM743.467 540.885c-15.317-3.755-29.653-12.245-42.88-25.472-19.755-19.755-28.16-40.235-28.16-68.651 0-27.008 9.173-53.504 25.771-74.283 10.027-12.587 25.771-26.88 50.731-46.165 24.832-19.157 38.059-31.829 43.392-41.643 4.224-7.808 8.704-27.179 7.296-31.744-0.43-1.412-0.99-3.663-1.483-5.939l-0.138-0.76c-1.152-5.12-9.643-15.616-15.275-18.901-2.475-1.365-17.621-2.304-47.147-2.901-39.552-0.768-44.032-1.152-49.323-4.267-10.709-6.315-12.971-11.179-12.971-28.16s2.261-21.845 12.971-28.16c5.291-3.115 9.429-3.456 46.805-3.925 55.296-0.725 72.277 2.987 93.653 20.48 27.307 22.357 38.101 46.848 36.395 82.432-2.219 45.355-18.816 70.315-76.629 115.371-36.736 28.629-45.867 39.893-49.28 60.928-3.285 20.139 5.803 35.627 23.253 39.68 3.669 0.853 23.552 1.579 44.117 1.579 34.261 0.043 38.059 0.341 44.715 3.541 9.472 4.608 14.293 14.080 14.293 28.075s-4.821 23.467-14.293 28.075c-6.784 3.285-10.155 3.499-51.541 3.371-31.957-0.128-47.019-0.811-54.272-2.56zM506.368 473.557c46.037-20.992 49.877-84.864 6.741-112.128-7.851-4.949-20.309-8.96-27.989-9.003h-5.547v127.573l8.107-0.811c4.48-0.427 12.885-2.987 18.688-5.632z" />
<glyph unicode="&#xe92e;" glyph-name="gif" d="M58.027 957.611c-19.2-4.267-38.101-18.133-48.213-35.456-10.496-17.877-9.813 14.635-9.813-474.155s-0.683-456.277 9.813-474.155c5.632-9.643 18.389-22.4 28.032-28.032 17.877-10.496-14.635-9.813 474.155-9.813s456.277-0.683 474.155 9.813c11.315 7.352 20.68 16.717 27.812 27.671l0.22 0.361c10.496 17.877 9.813-14.635 9.813 474.155 0 401.067-0.256 446.848-2.688 456.235-7.655 27.4-29.759 48.18-57.373 53.806l-0.483 0.082c-15.275 2.859-892.672 2.347-905.429-0.512zM956.459 892.459c2.432-2.432 2.688-45.099 2.688-444.459 0-399.147-0.256-442.027-2.688-444.459-1.762-1.627-3.909-2.863-6.288-3.556l-0.112-0.028c-2.048-0.512-200.96-0.683-442.027-0.427-431.659 0.469-438.357 0.512-440.747 3.797-2.091 2.816-2.432 66.219-2.432 444.885 0 399.147 0.256 441.813 2.688 444.245s45.099 2.688 444.459 2.688 442.027-0.256 444.459-2.688zM298.667 541.739c-11.179-2.176-33.877-14.037-42.197-22.101-17.621-17.024-25.941-31.36-30.379-52.309-3.584-17.067-3.627-214.4 0-231.424 3.925-18.517 11.861-32.768 26.453-47.36 38.656-38.656 96.256-38.656 134.912 0 14.763 14.805 22.571 28.928 26.581 48.171 3.925 18.731 2.816 91.819-1.493 100.48-4.949 9.941-13.781 13.739-34.389 14.805-43.989 2.261-57.813-5.419-57.813-32 0-17.92 8.491-28.885 24.448-31.573l6.784-1.152v-19.584c0-25.173-3.413-32.896-17.792-40.235-4-1.944-8.702-3.080-13.668-3.080-12.226 0-22.844 6.884-28.19 16.986l-0.084 0.173c-3.285 6.4-3.413 10.155-3.413 109.867 0 68.779 0.597 104.789 1.835 107.989 1.673 3.729 3.821 6.93 6.418 9.705l-0.018-0.020c9.515 10.069 11.051 10.368 58.624 11.307 41.173 0.853 44.117 1.109 48.64 4.48 6.735 5.296 11.211 13.201 11.897 22.166l0.007 0.106c1.92 16.512-5.419 30.72-17.835 34.432-7.893 2.347-87.253 2.475-99.328 0.171zM496.853 541.227c-7.736-3.195-13.501-9.789-15.493-17.869l-0.037-0.179c-1.237-4.523-1.664-60.885-1.365-174.464 0.469-165.803 0.512-167.893 4.011-174.507 4.907-9.387 13.867-13.781 28.032-13.781s23.125 4.395 28.032 13.781c3.499 6.613 3.541 8.704 4.011 174.507 0.299 112.768-0.128 169.984-1.323 174.421-3.755 13.867-14.251 20.565-31.787 20.309-5.060-0.114-9.889-0.917-14.457-2.318l0.377 0.099zM682.667 541.739c-27.307-5.291-58.027-31.787-68.139-58.795-6.827-18.219-7.125-25.728-6.613-166.357 0.512-133.291 0.555-135.808 4.053-142.379 4.907-9.387 13.867-13.781 28.032-13.781s23.125 4.395 28.032 13.781c3.328 6.272 3.584 10.027 4.053 59.904l0.512 53.248 37.888 0.512c36.309 0.512 38.144 0.725 44.331 4.565 9.344 5.803 12.245 12.331 12.245 27.563s-2.901 21.76-12.245 27.563c-6.187 3.84-8.064 4.053-44.416 4.608l-37.973 0.597v50.901c0 31.829 0.683 52.736 1.835 55.723 1.673 3.729 3.821 6.93 6.418 9.705l-0.018-0.020c9.515 10.069 11.051 10.368 58.624 11.307 41.173 0.853 44.117 1.109 48.64 4.48 6.735 5.296 11.211 13.201 11.897 22.166l0.007 0.106c1.92 16.512-5.419 30.72-17.835 34.432-7.893 2.347-87.253 2.475-99.328 0.171z" />
<glyph unicode="&#xe92f;" glyph-name="jpg" d="M58.027 957.611c-19.2-4.267-38.101-18.133-48.213-35.456-10.496-17.877-9.813 14.635-9.813-474.155s-0.683-456.277 9.813-474.155c5.632-9.643 18.389-22.4 28.032-28.032 17.877-10.496-14.635-9.813 474.155-9.813s456.277-0.683 474.155 9.813c11.315 7.352 20.68 16.717 27.812 27.671l0.22 0.361c10.496 17.877 9.813-14.635 9.813 474.155 0 401.067-0.256 446.848-2.688 456.235-7.655 27.4-29.759 48.18-57.373 53.806l-0.483 0.082c-15.275 2.859-892.672 2.347-905.429-0.512zM956.459 892.459c2.432-2.432 2.688-45.099 2.688-444.459 0-399.147-0.256-442.027-2.688-444.459-1.762-1.627-3.909-2.863-6.288-3.556l-0.112-0.028c-2.048-0.512-200.96-0.683-442.027-0.427-431.659 0.469-438.357 0.512-440.747 3.797-2.091 2.816-2.432 66.219-2.432 444.885 0 399.147 0.256 441.813 2.688 444.245s45.099 2.688 444.459 2.688 442.027-0.256 444.459-2.688zM302.891 540.16c-4.151-2.181-7.587-5.207-10.18-8.871l-0.060-0.089c-3.243-5.376-3.413-10.155-4.224-144.64-0.768-126.677-1.109-139.563-3.755-144.384-4.181-7.637-14.080-15.744-20.523-16.768-3.072-0.512-23.253-1.109-44.843-1.365-35.712-0.427-39.765-0.768-45.056-3.883-10.709-6.315-12.971-11.179-12.971-28.16s2.261-21.845 12.971-28.16c5.291-3.115 9.429-3.456 46.805-3.925 45.013-0.597 57.771 0.939 75.435 9.003 17.536 8.021 37.461 27.392 45.739 44.416 9.472 19.584 9.344 17.237 9.344 168.789 0 137.771-0.043 139.989-3.499 147.157-6.528 13.483-29.013 18.901-45.184 10.88zM429.653 540.16c-4.164-2.476-7.502-5.95-9.745-10.102l-0.068-0.138c-3.413-6.699-3.456-9.003-3.029-179.925 0.469-172.971 0.469-173.099 4.053-177.92 6.272-8.405 13.824-11.648 27.136-11.648s20.864 3.243 27.136 11.648c3.456 4.608 3.584 6.955 4.096 59.904l0.469 55.125 11.477 1.152c45.694 4.418 84.016 32.195 103.216 71.099l0.336 0.752c10.368 21.333 13.525 37.163 12.416 62.123-1.579 34.645-11.947 58.411-36.267 83.072-13.821 14.499-31.009 25.664-50.317 32.25l-0.883 0.262c-12.8 4.352-15.787 4.693-48.64 5.248-32.555 0.512-35.413 0.341-41.387-2.901zM743.467 540.885c-7.87-2.22-14.667-4.939-21.097-8.269l0.617 0.29c-13.397-7.083-32.768-26.411-39.765-39.68-11.051-21.035-10.965-19.541-10.411-145.536 0.512-113.323 0.512-113.92 4.309-123.989 9.643-25.344 32.171-48.299 56.277-57.301 15.36-5.76 32.597-7.765 47.189-5.461 23.595 3.627 39.253 11.605 55.467 28.117 11.776 11.989 18.133 21.888 22.827 35.371 3.627 10.539 3.84 13.653 3.84 60.885 0 47.957-0.128 49.963-3.584 54.613-7.765 10.411-12.373 11.648-43.349 11.648-26.581 0-28.501-0.213-34.603-4.011-9.344-5.803-12.245-12.331-12.245-27.563 0-19.925 7.040-29.141 24.363-31.744l7.509-1.152-0.725-19.797c-0.811-21.376-2.432-26.539-11.008-34.645-5.617-5.172-13.146-8.343-21.416-8.343-4.373 0-8.539 0.887-12.328 2.49l0.208-0.078c-6.613 2.773-16 13.013-17.792 19.499-1.707 6.016-1.749 206.293-0.043 212.309 1.707 6.059 8.96 14.507 15.573 18.091 4.48 2.432 12.288 3.029 48.853 3.755 39.424 0.811 44.032 1.195 49.109 4.267 17.621 10.667 16.384 46.549-1.963 55.424-6.784 3.285-10.155 3.499-51.541 3.371-31.957-0.128-47.019-0.811-54.272-2.56zM506.368 473.557c46.037-20.992 49.877-84.864 6.741-112.128-7.851-4.949-20.309-8.96-27.989-9.003h-5.547v127.573l8.107-0.811c4.48-0.427 12.885-2.987 18.688-5.632z" />
<glyph unicode="&#xe930;" glyph-name="png" d="M58.027 957.611c-19.2-4.267-38.101-18.133-48.213-35.456-10.496-17.877-9.813 14.635-9.813-474.155s-0.683-456.277 9.813-474.155c5.632-9.643 18.389-22.4 28.032-28.032 17.877-10.496-14.635-9.813 474.155-9.813s456.277-0.683 474.155 9.813c11.315 7.352 20.68 16.717 27.812 27.671l0.22 0.361c10.496 17.877 9.813-14.635 9.813 474.155 0 401.067-0.256 446.848-2.688 456.235-7.655 27.4-29.759 48.18-57.373 53.806l-0.483 0.082c-15.275 2.859-892.672 2.347-905.429-0.512zM956.459 892.459c2.432-2.432 2.688-45.099 2.688-444.459 0-399.147-0.256-442.027-2.688-444.459-1.762-1.627-3.909-2.863-6.288-3.556l-0.112-0.028c-2.048-0.512-200.96-0.683-442.027-0.427-431.659 0.469-438.357 0.512-440.747 3.797-2.091 2.816-2.432 66.219-2.432 444.885 0 399.147 0.256 441.813 2.688 444.245s45.099 2.688 444.459 2.688 442.027-0.256 444.459-2.688zM173.653 540.16c-4.164-2.476-7.502-5.95-9.745-10.102l-0.068-0.138c-3.413-6.699-3.456-9.003-3.029-179.925 0.469-172.971 0.469-173.099 4.053-177.92 6.272-8.405 13.824-11.648 27.136-11.648s20.864 3.243 27.136 11.648c3.456 4.608 3.584 6.955 4.096 59.904l0.469 55.125 11.477 1.152c45.694 4.418 84.016 32.195 103.216 71.099l0.336 0.752c10.368 21.333 13.525 37.163 12.416 62.123-1.579 34.645-11.947 58.411-36.267 83.072-13.821 14.499-31.009 25.664-50.317 32.25l-0.883 0.262c-12.8 4.352-15.787 4.693-48.64 5.248-32.555 0.512-35.413 0.341-41.387-2.901zM430.592 540.117c-4.771-2.289-8.509-6.096-10.653-10.785l-0.056-0.138c-3.499-7.211-3.499-8.491-3.072-179.797 0.469-172.373 0.469-172.501 4.053-177.323 6.272-8.405 13.824-11.648 27.136-11.648s20.864 3.243 27.136 11.648c3.499 4.693 3.584 6.784 4.437 88.576l0.853 83.712 34.005-85.12c31.104-77.952 34.603-85.76 41.131-92.416 6.699-6.741 7.808-7.253 16.384-7.253 11.733 0.043 25.131 6.101 30.677 13.867l4.096 5.76 0.469 171.349c0.427 170.368 0.427 171.392-3.115 178.688-8.875 18.389-44.715 19.669-55.424 2.005-3.2-5.291-3.413-9.728-4.224-88.363l-0.853-82.773-33.024 82.347c-18.176 45.312-34.688 84.779-36.693 87.765-6.4 9.387-12.032 12.331-24.619 12.971-9.131 0.469-12.928-0.171-18.645-3.072zM743.467 540.885c-7.87-2.22-14.667-4.939-21.097-8.269l0.617 0.29c-13.397-7.083-32.768-26.411-39.765-39.68-11.051-21.035-10.965-19.541-10.411-145.536 0.512-113.323 0.512-113.92 4.309-123.989 9.643-25.344 32.171-48.299 56.277-57.301 15.36-5.76 32.597-7.765 47.189-5.461 23.595 3.627 39.253 11.605 55.467 28.117 11.776 11.989 18.133 21.888 22.827 35.371 3.627 10.539 3.84 13.653 3.84 60.885 0 47.957-0.128 49.963-3.584 54.613-7.765 10.411-12.373 11.648-43.349 11.648-26.581 0-28.501-0.213-34.603-4.011-9.344-5.803-12.245-12.331-12.245-27.563 0-19.925 7.040-29.141 24.363-31.744l7.509-1.152-0.725-19.797c-0.811-21.376-2.432-26.539-11.008-34.645-5.617-5.172-13.146-8.343-21.416-8.343-4.373 0-8.539 0.887-12.328 2.49l0.208-0.078c-6.613 2.773-16 13.013-17.792 19.499-1.707 6.016-1.749 206.293-0.043 212.309 1.707 6.059 8.96 14.507 15.573 18.091 4.48 2.432 12.288 3.029 48.853 3.755 39.424 0.811 44.032 1.195 49.109 4.267 17.621 10.667 16.384 46.549-1.963 55.424-6.784 3.285-10.155 3.499-51.541 3.371-31.957-0.128-47.019-0.811-54.272-2.56zM250.368 473.557c46.037-20.992 49.877-84.864 6.741-112.128-7.851-4.949-20.309-8.96-27.989-9.003h-5.547v127.573l8.107-0.811c4.48-0.427 12.885-2.987 18.688-5.632z" />
<glyph unicode="&#xe931;" glyph-name="svg" d="M58.027 957.611c-19.2-4.267-38.101-18.133-48.213-35.456-10.496-17.877-9.813 14.635-9.813-474.155s-0.683-456.277 9.813-474.155c5.632-9.643 18.389-22.4 28.032-28.032 17.877-10.496-14.635-9.813 474.155-9.813s456.277-0.683 474.155 9.813c11.315 7.352 20.68 16.717 27.812 27.671l0.22 0.361c10.496 17.877 9.813-14.635 9.813 474.155 0 401.067-0.256 446.848-2.688 456.235-7.655 27.4-29.759 48.18-57.373 53.806l-0.483 0.082c-15.275 2.859-892.672 2.347-905.429-0.512zM956.459 892.459c2.432-2.432 2.688-45.099 2.688-444.459 0-399.147-0.256-442.027-2.688-444.459-1.762-1.627-3.909-2.863-6.288-3.556l-0.112-0.028c-2.048-0.512-200.96-0.683-442.027-0.427-431.659 0.469-438.357 0.512-440.747 3.797-2.091 2.816-2.432 66.219-2.432 444.885 0 399.147 0.256 441.813 2.688 444.245s45.099 2.688 444.459 2.688 442.027-0.256 444.459-2.688zM231.467 540.885c-15.317-3.755-29.653-12.245-42.88-25.472-19.755-19.755-28.16-40.235-28.16-68.651 0-27.008 9.173-53.504 25.771-74.283 10.027-12.587 25.771-26.88 50.731-46.165 24.832-19.157 38.059-31.829 43.392-41.643 4.224-7.808 8.704-27.179 7.296-31.744-0.43-1.412-0.99-3.663-1.483-5.939l-0.138-0.76c-1.152-5.12-9.643-15.616-15.275-18.901-2.475-1.365-17.621-2.304-47.147-2.901-39.552-0.768-44.032-1.152-49.323-4.267-10.709-6.315-12.971-11.179-12.971-28.16s2.261-21.845 12.971-28.16c5.291-3.115 9.429-3.456 46.805-3.925 55.296-0.725 72.277 2.987 93.653 20.48 27.307 22.357 38.101 46.848 36.395 82.432-2.219 45.355-18.816 70.315-76.629 115.371-36.736 28.629-45.867 39.893-49.28 60.928-3.285 20.139 5.803 35.627 23.253 39.68 3.669 0.853 23.552 1.579 44.117 1.579 34.261 0.043 38.059 0.341 44.715 3.541 9.472 4.608 14.293 14.080 14.293 28.075s-4.821 23.467-14.293 28.075c-6.784 3.285-10.155 3.499-51.541 3.371-31.957-0.128-47.019-0.811-54.272-2.56zM430.592 540.032c-4.762-2.228-8.492-6-10.612-10.66l-0.055-0.135c-3.371-6.955-3.499-10.112-3.499-80.555 0-85.12 1.621-104.832 12.117-146.603 10.706-42.493 26.88-79.845 48.068-113.74l-0.964 1.654c17.792-29.653 28.544-36.309 46.208-28.715 10.837 4.651 14.677 8.875 27.264 29.867 19.795 31.92 35.698 68.879 45.74 108.182l0.596 2.751c10.496 41.771 12.117 61.483 12.117 146.603 0 70.571-0.128 73.6-3.499 80.597-9.472 19.499-46.677 19.499-56.149 0-3.328-6.912-3.499-10.24-3.541-65.195-0.043-87.083-2.645-116.864-13.824-156.032-5.376-18.773-16.896-49.493-18.56-49.493s-13.184 30.72-18.56 49.493c-11.179 39.168-13.781 68.949-13.824 156.032-0.043 54.955-0.213 58.283-3.541 65.195-6.613 13.568-29.013 18.901-45.483 10.752zM743.467 540.885c-7.87-2.22-14.667-4.939-21.097-8.269l0.617 0.29c-13.397-7.083-32.768-26.411-39.765-39.68-11.051-21.035-10.965-19.541-10.411-145.536 0.512-113.323 0.512-113.92 4.309-123.989 9.643-25.344 32.171-48.299 56.277-57.301 15.36-5.76 32.597-7.765 47.189-5.461 23.595 3.627 39.253 11.605 55.467 28.117 11.776 11.989 18.133 21.888 22.827 35.371 3.627 10.539 3.84 13.653 3.84 60.885 0 47.957-0.128 49.963-3.584 54.613-7.765 10.411-12.373 11.648-43.349 11.648-26.581 0-28.501-0.213-34.603-4.011-9.344-5.803-12.245-12.331-12.245-27.563 0-19.925 7.040-29.141 24.363-31.744l7.509-1.152-0.725-19.797c-0.811-21.376-2.432-26.539-11.008-34.645-5.617-5.172-13.146-8.343-21.416-8.343-4.373 0-8.539 0.887-12.328 2.49l0.208-0.078c-6.613 2.773-16 13.013-17.792 19.499-1.707 6.016-1.749 206.293-0.043 212.309 1.707 6.059 8.96 14.507 15.573 18.091 4.48 2.432 12.288 3.029 48.853 3.755 39.424 0.811 44.032 1.195 49.109 4.267 17.621 10.667 16.384 46.549-1.963 55.424-6.784 3.285-10.155 3.499-51.541 3.371-31.957-0.128-47.019-0.811-54.272-2.56z" />
<glyph unicode="&#xe932;" glyph-name="doc" horiz-adv-x="983" d="M100.762 917.279c-27.689-4.669-55.624-21.75-74.588-45.548-9.408-11.643-16.773-25.382-21.284-40.358l-0.22-0.848-3.85-12.247v-781.517l3.85-12.288c10.24-32.891 33.3-60.293 63.324-75.366 26.87-13.476-13.394-12.288 423.526-12.288h389.12l13.189 3.768c21.012 6.021 35.348 14.909 53.207 32.891 12.575 12.739 16.957 18.473 22.528 29.696 13.804 27.771 12.657-3.932 12.657 348.979v313.754l-3.768 10.977c-2.947 7.865-6.338 14.616-10.347 20.937l0.271-0.457c-3.85 5.857-44.319 47.432-105.144 108.052-95.396 94.986-99.369 98.714-111.206 104.325-6.257 2.981-13.592 5.568-21.226 7.382l-0.769 0.154c-11.837 2.13-616.571 2.13-629.268 0zM675.389 771.994c0.573-82.002 0.737-85.156 4.178-95.56 9.544-28.59 34.857-52.838 64.471-61.686 7.455-2.212 21.75-2.744 92.774-3.318l84.009-0.655-0.451-284.549-0.41-284.549-4.792-9.462c-5.612-11.1-19.292-24.658-29.368-29.123-5.297-2.079-11.505-3.751-17.94-4.731l-0.492-0.062c-15.483-2.212-736.215-2.212-751.698 0-6.927 1.041-13.135 2.713-19.037 4.998l0.605-0.206c-10.076 4.465-23.757 18.022-29.368 29.123l-4.792 9.462-0.41 383.754c-0.41 375.726-0.369 383.918 2.744 392.069 6.68 16.404 19.36 29.204 35.247 35.885l0.429 0.16c7.578 2.99 18.063 3.072 290.775 3.154l282.911 0.082 0.614-84.787zM838.451 673.608c-38.052-0.246-72.417 0-76.308 0.532-5.245 0.829-9.824 3.222-13.357 6.681l0.004-0.004c-11.837 10.691-11.51 8.192-11.51 90.194v73.482l170.394-170.394-69.222-0.492zM174.776 457.093c-7.873-1.442-14.351-6.41-17.834-13.172l-0.066-0.14c-2.662-5.243-2.867-16.712-2.867-169.329 0-161.997 0.041-163.84 3.359-170.721 2.15-4.806 5.978-8.541 10.721-10.518l0.134-0.049c6.758-3.277 9.093-3.523 25.682-2.662 65.536 3.482 120.3 48.169 139.018 113.377 3.604 12.534 3.768 15.565 3.768 69.632 0 53.862-0.164 57.139-3.727 69.345-4.696 17.551-11.845 32.928-21.19 46.694l0.341-0.533c-19.327 29.067-47.598 50.852-80.836 61.588l-1.084 0.303c-17.244 5.448-44.073 8.438-55.419 6.185zM478.372 457.093c-32.604-4.342-62.013-28.14-74.056-59.884-3.686-9.83-3.686-10.035-4.178-119.153-0.532-120.955-0.614-119.521 9.994-139.715 6.676-12.657 25.313-31.293 37.97-37.97 12.62-6.601 27.567-10.473 43.418-10.473s30.797 3.873 43.945 10.723l-0.527-0.25c12.657 6.676 31.293 25.313 37.97 37.97 10.609 20.193 10.527 18.76 9.994 139.715-0.492 109.117-0.492 109.322-4.178 119.153-13.941 35.784-48.125 60.679-88.124 60.679-4.311 0-8.555-0.289-12.713-0.849l0.485 0.053zM781.353 456.888c-35.505-4.003-66.729-19.789-90.235-43.295v0c-20.193-20.111-32.563-41.452-41.042-70.656-3.564-12.329-3.727-15.442-3.727-69.427 0-54.026 0.164-57.098 3.727-69.468 13.025-44.892 41.247-79.053 81.469-98.55 20.193-9.789 35.758-13.844 57.59-14.991 16.589-0.86 18.924-0.614 25.682 2.662 9.626 4.628 14.213 13.435 14.213 27.156 0 19.661-10.363 30.269-29.614 30.351-36.453 0.313-67.911 21.39-83.149 51.967l-0.245 0.544c-8.888 18.514-10.486 32.276-9.462 80.978 0.696 32.44 1.311 39.199 4.26 48.456 6.84 21.258 24.904 42.803 44.442 52.92 14.746 7.66 20.029 9.093 39.117 10.772 18.022 1.556 24.453 4.096 30.392 12.083 2.908 3.891 3.441 6.922 3.441 19.128s-0.532 15.237-3.441 19.128c-7.496 10.035-18.801 12.698-43.418 10.24zM502.456 394.629c5.734-2.13 13.066-8.929 16.671-15.442 2.417-4.383 2.744-14.95 3.195-98.304 0.287-51.364 0.082-97.239-0.492-101.908-2.99-24.822-31.171-36.536-49.971-20.726-11.182 9.38-10.65 3.891-10.65 113.623 0 54.518 0.573 101.13 1.27 103.588 1.679 6.021 10.609 15.974 16.712 18.637 3.699 1.371 7.973 2.164 12.431 2.164 3.867 0 7.594-0.597 11.095-1.703l-0.261 0.071zM227.533 385.741c19.866-10.445 37.806-31.785 44.687-53.125 2.949-9.257 3.564-16.056 4.26-48.538 1.065-48.783-0.573-62.218-9.708-81.019-9.953-20.357-31.949-41.165-47.759-45.138l-4.383-1.106v117.35c0 64.512 0.451 117.309 0.983 117.309s5.898-2.58 11.919-5.734z" />
<glyph unicode="&#xe933;" glyph-name="keyboard-arrow-enter" d="M256 419.667c-15.709-0.002-29.929-6.371-40.222-16.667l-170.667-170.667c-10.291-10.295-16.656-24.515-16.656-40.222s6.365-29.927 16.656-40.222l170.666-170.666c10.294-10.292 24.515-16.658 40.222-16.658s29.928 6.366 40.222 16.658v0c10.292 10.294 16.658 24.515 16.658 40.222s-6.366 29.928-16.658 40.222l-130.444 130.444 130.444 130.444c10.292 10.294 16.658 24.515 16.658 40.222s-6.366 29.928-16.658 40.222v0c-10.293 10.295-24.514 16.664-40.222 16.667v0zM455.111 931.667c-31.419 0-56.889-25.47-56.889-56.889v0c0-31.419 25.47-56.889 56.889-56.889v0h312.889c63.515 0 113.778-50.265 113.778-113.778v-341.333c0-63.508-50.264-113.778-113.778-113.778h-682.667c-31.419 0-56.889-25.47-56.889-56.889v0c0-31.419 25.47-56.889 56.889-56.889v0h682.667c125.005 0 227.556 102.557 227.556 227.556v341.333c0 125.001-102.552 227.556-227.556 227.556z" />
<glyph unicode="&#xe934;" glyph-name="ppt" d="M104.98 917.811c-26.092-3.604-47.718-14.787-68.485-35.43-13.312-13.23-16.712-17.859-23.388-31.662-14.295-29.573-13.271 5.161-12.739-429.179l0.492-385.72 4.465-13.066c7.25-21.217 15.852-34.898 32.031-50.954 15.811-15.606 29.041-23.716 50.545-30.925l11.96-4.014 385.679-0.492c433.439-0.532 399.688-1.475 428.524 12.411 33.792 16.343 59.638 49.603 66.519 85.647 3.727 19.456 3.604 619.192-0.123 635.044-5.898 25.027-4.342 23.224-114.074 132.792-110.060 109.937-108.995 109.036-133.775 114.278-9.789 2.089-57.549 2.417-317.030 2.212-168.018-0.123-307.814-0.532-310.6-0.942zM676.209 770.97c0.573-83.763 0.696-86.917 4.26-96.338 9.952-27.17 30.993-48.211 57.494-57.948l0.669-0.215c9.421-3.564 12.575-3.686 96.379-4.26l86.63-0.532-0.901-567.296-4.751-10.24c-6.226-13.353-17.859-24.986-30.884-31.048l-10.445-4.792h-766.362l-11.264 5.53c-13.333 6.643-23.815 17.337-30.020 30.449l-0.167 0.393-4.547 9.708v766.28l4.792 10.24c8.068 17.13 23.051 29.873 41.252 34.755l0.445 0.102c3.564 0.819 130.826 1.556 286.638 1.679l280.248 0.164 0.532-86.63zM835.133 673.69c-71.27-0.451-72.95-0.369-80.323 3.195-4.919 2.539-8.98 6.115-12.013 10.461l-0.070 0.106-4.588 6.922-0.451 75.203-0.492 75.203 170.762-170.639-72.827-0.451zM167.772 454.799c-4.767-2.294-8.499-6.106-10.634-10.798l-0.056-0.138c-3.523-7.25-3.564-8.479-3.072-172.114 0.451-163.471 0.492-164.864 3.973-169.533 7.25-9.708 11.837-11.756 26.337-11.756s19.087 2.048 26.337 11.756c3.359 4.465 3.564 7.25 4.014 57.467l0.492 52.797h5.98c12.37 0 32.645 5.489 48.456 13.107 24.023 12.147 43.067 31.191 54.892 54.513l0.322 0.701c17.49 36.291 17.49 72.827 0 109.117-6.676 13.763-10.117 18.473-23.388 31.703-12.534 12.575-18.35 16.957-30.065 22.733-22.282 11.018-29.164 12.411-64.84 13.312-29.778 0.737-31.99 0.573-38.748-2.867zM413.532 454.799c-4.767-2.294-8.499-6.106-10.634-10.798l-0.056-0.138c-3.523-7.25-3.564-8.479-3.072-172.114 0.451-163.471 0.492-164.864 3.973-169.533 7.25-9.708 11.837-11.756 26.337-11.756s19.087 2.048 26.337 11.756c3.359 4.465 3.564 7.25 4.014 57.467l0.492 52.797h5.98c12.37 0 32.645 5.489 48.456 13.107 13.763 6.676 18.473 10.117 31.785 23.429s16.753 18.022 23.429 31.785c17.49 36.291 17.49 72.827 0 109.117-6.676 13.763-10.117 18.473-23.388 31.703-12.534 12.575-18.35 16.957-30.065 22.733-22.282 11.018-29.164 12.411-64.84 13.312-29.778 0.737-31.99 0.573-38.748-2.867zM662.774 456.397c-17.408-5.161-23.757-35.226-10.568-50.258 6.636-7.537 13.476-9.298 35.963-9.339h18.309l0.492-144.957c0.451-143.36 0.492-144.998 3.973-149.627 7.25-9.708 11.837-11.756 26.337-11.756s19.087 2.048 26.337 11.756c3.482 4.628 3.523 6.267 3.973 149.463l0.451 144.794 22.036 0.573c23.88 0.655 27.116 1.802 34.898 12.247 5.243 7.004 5.898 24.412 1.27 33.956-6.963 14.418-4.997 14.090-86.385 14.459-40.428 0.164-74.056-0.41-77.087-1.311zM240.64 390.574c12.493-5.571 24.248-17.367 30.065-30.269 3.973-8.765 4.751-12.78 4.751-24.945 0-12.247-0.737-16.097-4.71-24.74-5.038-11.059-13.64-21.053-23.429-27.361-6.676-4.301-21.996-9.339-28.303-9.339h-3.973v123.085l8.11-1.106c4.465-0.655 12.329-3.031 17.49-5.325zM486.4 390.574c12.493-5.571 24.248-17.367 30.065-30.269 3.973-8.765 4.751-12.78 4.751-24.945 0-12.247-0.737-16.097-4.71-24.74-5.038-11.059-13.64-21.053-23.429-27.361-6.676-4.301-21.996-9.339-28.303-9.339h-3.973v123.085l8.11-1.106c4.465-0.655 12.329-3.031 17.49-5.325z" />
<glyph unicode="&#xe935;" glyph-name="xls" d="M104.98 917.811c-26.092-3.604-47.718-14.787-68.485-35.43-13.312-13.23-16.712-17.859-23.388-31.662-14.295-29.573-13.271 5.161-12.739-429.179l0.492-385.72 4.465-13.066c7.25-21.217 15.852-34.898 32.031-50.954 15.811-15.606 29.041-23.716 50.545-30.925l11.96-4.014 385.679-0.492c433.439-0.532 399.688-1.475 428.524 12.411 33.792 16.343 59.638 49.603 66.519 85.647 3.727 19.456 3.604 619.192-0.123 635.044-5.898 25.027-4.342 23.224-114.074 132.792-110.060 109.937-108.995 109.036-133.775 114.278-9.789 2.089-57.549 2.417-317.030 2.212-168.018-0.123-307.814-0.532-310.6-0.942zM676.209 770.97c0.573-83.763 0.696-86.917 4.26-96.338 9.952-27.17 30.993-48.211 57.494-57.948l0.669-0.215c9.421-3.564 12.575-3.686 96.379-4.26l86.63-0.532-0.901-567.296-4.751-10.24c-6.226-13.353-17.859-24.986-30.884-31.048l-10.445-4.792h-766.362l-11.264 5.53c-13.333 6.643-23.815 17.337-30.020 30.449l-0.167 0.393-4.547 9.708v766.28l4.792 10.24c8.068 17.13 23.051 29.873 41.252 34.755l0.445 0.102c3.564 0.819 130.826 1.556 286.638 1.679l280.248 0.164 0.532-86.63zM835.133 673.69c-71.27-0.451-72.95-0.369-80.323 3.195-4.919 2.539-8.98 6.115-12.013 10.461l-0.070 0.106-4.588 6.922-0.451 75.203-0.492 75.203 170.762-170.639-72.827-0.451zM179.118 457.585c-19.374-5.12-29.368-18.022-25.6-32.932 1.024-4.219 14.295-38.502 29.409-76.227 15.114-37.683 27.853-70.246 28.262-72.294 0.492-2.335-10.281-31.58-28.303-76.8-15.974-40.182-29.532-75.735-30.106-79.012-1.72-9.953 4.71-20.275 16.384-26.173 16.261-8.233 31.826-5.775 39.117 6.185 1.843 3.031 10.772 24.125 19.866 46.858 9.093 22.774 17.039 41.411 17.613 41.411s8.52-18.719 17.654-41.574c17.039-42.598 21.709-51.323 29.737-55.542 10.895-5.693 33.546 0.819 41.452 11.919 7.782 10.936 6.595 15.36-25.559 95.396-16.015 39.854-29.164 73.646-29.164 75.039 0 1.434 13.189 35.594 29.327 75.981 31.662 79.299 33.096 84.5 26.092 94.208-3.664 3.931-8.006 7.173-12.848 9.552l-0.259 0.115c-17.203 8.684-31.621 5.816-39.567-7.823-2.294-4.014-11.305-25.108-19.988-46.94s-16.261-39.69-16.876-39.69c-0.573 0-8.52 18.637-17.613 41.411-9.093 22.733-18.022 43.827-19.866 46.858-5.775 9.421-16.957 13.312-29.164 10.076zM417.464 456.561c-7.715-3.015-13.645-9.146-16.324-16.803l-0.060-0.195c-2.458-8.765-2.294-265.093 0.164-276.931 5.407-26.173 25.477-51.855 49.521-63.324 18.637-8.929 27.443-10.035 74.342-9.421 45.384 0.614 45.507 0.655 54.19 12.329 5.12 6.799 5.12 29.409 0 36.209-8.684 11.633-8.806 11.674-55.050 12.616-43.090 0.86-45.752 1.27-53.821 8.315-9.052 7.946-8.724 2.458-9.626 147.292-0.86 132.301-0.901 134.349-4.383 138.977-6.39 8.561-11.551 11.223-23.142 11.878-1.348 0.112-2.918 0.176-4.503 0.176-4.002 0-7.908-0.407-11.681-1.182l0.373 0.064zM717.66 456.315c-4.71-0.901-14.295-4.506-21.34-7.946-25.218-13.010-43.544-36.367-49.493-64.305l-0.11-0.617c-2.949-15.319-1.147-37.724 4.383-54.231 9.38-27.935 22.979-44.155 65.7-78.316 15.483-12.37 31.457-26.132 35.512-30.515 20.562-22.487 20.48-54.19-0.246-65.536-4.588-2.499-11.878-3.072-47.514-3.809-46.244-0.942-46.367-0.983-55.050-12.616-5.12-6.799-5.12-29.409 0-36.209 8.684-11.674 8.806-11.715 54.19-12.329 26.378-0.328 44.974 0.164 51.528 1.434 35.471 6.799 65.7 37.192 72.622 73.073 3.072 15.974 1.147 38.052-4.833 55.46-9.257 26.87-25.682 46.326-64.389 76.268-38.298 29.573-48.947 42.762-51.364 63.57-1.761 14.909 3.809 27.034 15.237 33.3 4.588 2.499 11.878 3.072 47.514 3.809 39.158 0.778 42.476 1.106 46.817 4.383 9.708 7.25 11.756 11.837 11.756 26.337s-2.048 19.087-11.756 26.337c-4.424 3.318-7.168 3.564-47.677 3.809-23.634 0.164-46.817-0.451-51.487-1.352z" />
<glyph unicode="&#xe936;" glyph-name="bulb2" horiz-adv-x="1078" d="M946.057 768.886l-67.933 68.919-86.241-87.981 67.933-68.919 86.241 87.981zM587.126 813.365h-96.357v146.635h96.357v-146.635zM1068.912 373.46h-144.537v97.758h144.537v-97.758zM490.769 33.756v193.559l-48.178 28.349c-59.742 35.191-96.358 99.712-96.358 169.118 0 108.021 86.241 195.514 192.715 195.514s192.715-87.493 192.715-195.514c0-69.406-37.098-133.927-96.358-169.118l-48.178-28.349v-193.559h-96.357zM394.411-64h289.073v235.105c86.239 50.834 144.535 145.167 144.535 253.677 0 161.788-129.601 293.27-289.072 293.27s-289.072-131.482-289.072-293.27c0-108.51 58.296-202.844 144.535-253.677v-235.105zM153.518 373.46h-144.536v97.758h144.536v-97.758zM286.492 750.312l-86.241 87.981-67.932-68.919 86.721-87.491 67.451 68.428z" />
<glyph unicode="&#xe937;" glyph-name="calculate" d="M910.222 960h-796.444c-62.578 0-113.778-51.2-113.778-113.778v-796.444c0-62.578 51.2-113.778 113.778-113.778h796.444c62.578 0 113.778 51.2 113.778 113.778v796.444c0 62.578-51.2 113.778-113.778 113.778zM910.222 49.778h-796.444v796.444h796.444v-796.444zM469.333 691.485h-284.445v-85.333h284.445v85.333zM853.333 234.667h-284.445v-85.333h284.445v85.333zM853.333 376.888h-284.445v-85.333h284.445v85.333zM284.445 106.667h85.333v113.778h113.777v85.333h-113.777v113.777h-85.333v-113.777h-113.778v-85.333h113.778v-113.778zM630.898 507.733l80.213 80.213 80.213-80.213 60.302 60.302-80.213 80.783 80.213 80.213-60.302 60.302-80.213-80.213-80.213 80.213-60.303-60.302 80.213-80.213-80.213-80.783 60.303-60.302z" />
<glyph unicode="&#xe938;" glyph-name="exit" horiz-adv-x="1263" d="M448.251 960v-292.572h-439.718v-438.856h439.718v-292.572l513.004 512-513.004 512zM594.823 374.857h-439.717v146.285h439.717v85.577l159.032-158.72-159.032-158.72v85.577zM1107.828-64v1024h146.572v-1024h-146.572z" />
<glyph unicode="&#xe939;" glyph-name="linechart" horiz-adv-x="1092" d="M8.533 16.927l403.2 405.176 215.040-215.806 381.158 429.995 75.802-76.073-456.96-515.775-215.040 215.805-322.56-324.248-80.64 80.927zM89.173 259.709l322.56 324.25 215.040-215.806 456.96 515.777-75.802 76.072-381.158-429.993-215.040 215.805-403.2-405.175 80.64-80.928z" />
<glyph unicode="&#xe93a;" glyph-name="spa" d="M687.71 569.344c-9.062 142.848-65.954 282.112-172.689 390.656-107.742-109.568-167.151-248.832-178.731-390.656 64.444-34.816 123.853-79.872 175.71-134.656 51.857 54.272 111.266 99.328 175.71 134.656zM514.517 796.672c31.718-52.736 53.871-111.616 65.451-173.056-23.663-15.36-45.815-32.256-67.465-50.176-21.146 17.408-43.802 34.304-66.961 49.664 12.587 61.44 35.746 120.32 68.975 173.568zM512 271.36c-41.284 64-93.645 119.808-154.061 163.84-6.545 4.608-13.594 8.192-20.139 13.312 6.545-4.608 13.594-8.704 19.635-12.8-98.176 72.192-218.505 114.688-348.902 114.688 0-272.384 169.165-502.784 404.284-588.288 31.718-11.776 64.947-20.48 99.183-26.112 34.236 6.144 66.961 14.848 99.183 26.112 235.119 85.504 404.284 315.904 404.284 588.288-210.449 0-395.221-111.104-503.467-279.040zM578.458 58.88c-22.153-7.68-44.305-13.824-66.961-18.944-22.153 4.608-43.802 10.752-64.444 18.432-165.641 60.416-286.976 204.288-324.736 376.32 55.381-13.312 108.245-36.352 157.082-68.096l-1.007-0.512c6.545-4.608 13.090-9.216 19.635-12.8l3.524-2.048c49.843-36.864 92.638-82.432 126.37-135.68l84.079-131.072 84.079 130.56c34.739 53.76 78.037 99.84 127.377 136.192l3.524 2.56c4.531 2.56 9.062 5.632 13.594 8.704l-0.503 1.024c49.34 33.28 104.218 57.856 161.613 71.68-37.76-172.544-158.592-316.416-323.226-376.32zM360.457 433.664c-1.007 0.512-2.014 1.536-2.517 2.048 0 0 0.503 0 0.503-0.512 0.503-0.512 1.007-1.024 2.014-1.536z" />
<glyph unicode="&#xe93b;" glyph-name="tree" horiz-adv-x="922" d="M511.051-64h402.016v358.4h-150.755v307.2h150.755v358.4h-402.016v-358.4h150.757v-102.4h-502.519v-204.8h-150.755v-358.4h402.016v358.4h-150.757v102.4h402.016v-102.4h-150.757v-358.4zM611.555 704v153.6h201.008v-153.6h-201.008zM310.045 192v-153.6h-201.008v153.6h201.008zM812.563 192v-153.6h-201.008v153.6h201.008z" />
<glyph unicode="&#xe93c;" glyph-name="instagram" d="M512 867.8c136.8 0 153-0.6 206.8-3 50-2.2 77-10.6 95-17.6 23.8-9.2 41-20.4 58.8-38.2 18-18 29-35 38.4-58.8 7-18 15.4-45.2 17.6-95 2.4-54 3-70.2 3-206.8s-0.6-153-3-206.8c-2.2-50-10.6-77-17.6-95-9.2-23.8-20.4-41-38.2-58.8-18-18-35-29-58.8-38.4-18-7-45.2-15.4-95-17.6-54-2.4-70.2-3-206.8-3s-153 0.6-206.8 3c-50 2.2-77 10.6-95 17.6-23.8 9.2-41 20.4-58.8 38.2-18 18-29 35-38.4 58.8-7 18-15.4 45.2-17.6 95-2.4 54-3 70.2-3 206.8s0.6 153 3 206.8c2.2 50 10.6 77 17.6 95 9.2 23.8 20.4 41 38.2 58.8 18 18 35 29 58.8 38.4 18 7 45.2 15.4 95 17.6 53.8 2.4 70 3 206.8 3zM512 960c-139 0-156.4-0.6-211-3-54.4-2.4-91.8-11.2-124.2-23.8-33.8-13.2-62.4-30.6-90.8-59.2-28.6-28.4-46-57-59.2-90.6-12.6-32.6-21.4-69.8-23.8-124.2-2.4-54.8-3-72.2-3-211.2s0.6-156.4 3-211c2.4-54.4 11.2-91.8 23.8-124.2 13.2-33.8 30.6-62.4 59.2-90.8 28.4-28.4 57-46 90.6-59 32.6-12.6 69.8-21.4 124.2-23.8 54.6-2.4 72-3 211-3s156.4 0.6 211 3c54.4 2.4 91.8 11.2 124.2 23.8 33.6 13 62.2 30.6 90.6 59s46 57 59 90.6c12.6 32.6 21.4 69.8 23.8 124.2 2.4 54.6 3 72 3 211s-0.6 156.4-3 211c-2.4 54.4-11.2 91.8-23.8 124.2-12.6 34-30 62.6-58.6 91-28.4 28.4-57 46-90.6 59-32.6 12.6-69.8 21.4-124.2 23.8-54.8 2.6-72.2 3.2-211.2 3.2v0zM512 711c-145.2 0-263-117.8-263-263s117.8-263 263-263 263 117.8 263 263c0 145.2-117.8 263-263 263zM512 277.4c-94.2 0-170.6 76.4-170.6 170.6s76.4 170.6 170.6 170.6c94.2 0 170.6-76.4 170.6-170.6s-76.4-170.6-170.6-170.6zM846.8 721.4c0-33.91-27.49-61.4-61.4-61.4s-61.4 27.49-61.4 61.4c0 33.91 27.49 61.4 61.4 61.4s61.4-27.49 61.4-61.4z" />
<glyph unicode="&#xe93d;" glyph-name="instagram-solid" d="M748.306 960h-472.614c-73.094-0.078-143.172-29.149-194.857-80.835s-80.757-121.763-80.835-194.857v-472.614c0.078-73.097 29.149-143.172 80.835-194.859 51.685-51.683 121.763-80.757 194.857-80.835h472.614c73.097 0.078 143.172 29.151 194.859 80.835 51.683 51.687 80.757 121.762 80.835 194.859v472.614c-0.078 73.094-29.151 143.172-80.835 194.857-51.687 51.686-121.762 80.757-194.859 80.835zM512 211.694c-46.735 0-92.426 13.857-131.285 39.825-38.861 25.965-69.149 62.87-87.034 106.050s-22.565 90.694-13.448 136.532c9.118 45.838 31.624 87.946 64.673 120.994s75.156 55.554 120.994 64.673c45.838 9.118 93.352 4.438 136.532-13.448s80.085-48.173 106.050-87.034c25.969-38.859 39.825-84.55 39.825-131.285-0.066-62.652-24.982-122.72-69.284-167.023s-104.37-69.218-167.023-69.284zM807.383 684.308c-11.682 0-23.106 3.465-32.821 9.956s-17.285 15.718-21.758 26.513c-4.469 10.795-5.64 22.673-3.363 34.133 2.281 11.46 7.909 21.986 16.171 30.248s18.788 13.889 30.249 16.168c11.457 2.279 23.335 1.11 34.132-3.362 10.793-4.472 20.021-12.043 26.513-21.759s9.953-21.137 9.953-32.821c0-15.668-6.222-30.695-17.302-41.774s-26.104-17.303-41.775-17.303zM669.54 448c0-31.158-9.241-61.616-26.55-87.523-17.314-25.907-41.914-46.1-70.701-58.024s-60.465-15.045-91.021-8.966c-30.56 6.083-58.63 21.086-80.664 43.119-22.032 22.032-37.036 50.102-43.115 80.663-6.079 30.556-2.959 62.235 8.965 91.021s32.116 53.389 58.023 70.699c25.907 17.311 56.365 26.55 87.523 26.55 41.783 0 81.85-16.597 111.395-46.142s46.146-69.613 46.146-111.396z" />
<glyph unicode="&#xe93e;" glyph-name="person3" d="M511.999 838.403c74.239 0 134.4-60.16 134.4-134.4s-60.16-134.4-134.4-134.4c-74.239 0-134.4 60.159-134.4 134.4s60.16 134.4 134.4 134.4zM511.999 262.406c190.079 0 390.397-93.441 390.397-134.406v-70.394h-780.793v70.394c0 40.964 200.32 134.406 390.399 134.406zM511.999 960.001c-141.439 0-256-114.559-256-255.997s114.561-256 256-256c141.439 0 255.997 114.559 255.997 256s-114.557 255.997-255.997 255.997zM511.999 384.004c-170.879 0-511.997-85.759-511.997-256.004v-191.999h1023.998v191.999c0 170.244-341.12 256.004-511.999 256.004z" />
<glyph unicode="&#xe93f;" glyph-name="download" horiz-adv-x="993" d="M786.1 453.046v-289.615h-579.231v289.615h-82.748v-289.615c0-45.512 37.236-82.749 82.748-82.749h579.231c45.512 0 82.749 37.236 82.749 82.749v289.615h-82.749zM537.858 425.326l107.16 106.744 58.337-58.337-206.87-206.87-206.869 206.87 58.336 58.337 107.16-106.744v400.083h82.745v-400.083z" />
<glyph unicode="&#xe940;" glyph-name="share" horiz-adv-x="983" d="M737.28 843.78c90.485 0 163.84-73.354 163.84-163.84s-73.355-163.84-163.84-163.84c-47.915 0-91.025 20.57-120.988 53.357l-206.692-118.086v-34.382l206.692-118.088c29.962 32.788 73.073 53.359 120.988 53.359 90.485 0 163.84-73.355 163.84-163.84s-73.355-163.84-163.84-163.84c-90.485 0-163.84 73.355-163.84 163.84 0 13.099 1.536 25.838 4.44 38.044l-198.216 113.283c-29.666-41.988-78.583-69.407-133.904-69.407-90.486 0-163.84 73.355-163.84 163.84s73.354 163.84 163.84 163.84c55.321 0 104.238-27.418 133.904-69.407l198.216 113.281c-2.904 12.209-4.44 24.948-4.44 38.045 0 90.486 73.355 163.84 163.84 163.84zM737.28 270.34c-45.244 0-81.92-36.676-81.92-81.92s36.676-81.92 81.92-81.92c45.244 0 81.92 36.676 81.92 81.92s-36.676 81.92-81.92 81.92zM245.76 516.1c-45.243 0-81.92-36.676-81.92-81.92s36.677-81.92 81.92-81.92c45.243 0 81.92 36.676 81.92 81.92s-36.677 81.92-81.92 81.92zM737.28 761.86c-45.244 0-81.92-36.677-81.92-81.92s36.676-81.92 81.92-81.92c45.244 0 81.92 36.677 81.92 81.92s-36.676 81.92-81.92 81.92z" />
<glyph unicode="&#xe941;" glyph-name="right-arrow" horiz-adv-x="983" d="M901.12 434.18l-163.84 163.84v-122.88h-614.4v-81.92h614.4v-122.88l163.84 163.84z" />
<glyph unicode="&#xe942;" glyph-name="play" d="M699.504 447.99l-272.826 181.888v-363.773l272.826 181.885zM826.72 430.24l-452.208-301.469c-9.805-6.538-23.050-3.888-29.584 5.914-2.336 3.507-3.584 7.626-3.584 11.837v602.942c0 11.782 9.552 21.333 21.334 21.333 4.211 0 8.33-1.247 11.834-3.583l452.208-301.47c9.802-6.538 12.451-19.786 5.914-29.584-1.562-2.342-3.571-4.358-5.914-5.92z" />
<glyph unicode="&#xe943;" glyph-name="PauseIcon" horiz-adv-x="673" d="M0 960h159.030v-1024h-159.030v1024zM512 960h160.97v-1020.121h-160.97v1020.121z" />
<glyph unicode="&#xe944;" glyph-name="language" d="M512.488-45.682c-68.399 0-132.946 13.091-193.642 39.274-60.696 26.187-113.629 61.834-158.799 106.949-45.178 45.107-80.878 97.965-107.1 158.578-26.221 60.609-39.332 125.066-39.332 193.367 0 68.844 13.111 133.437 39.332 193.777s61.921 113.063 107.1 158.169c45.17 45.115 98.103 80.765 158.799 106.949s125.243 39.277 193.642 39.277c68.939 0 133.624-13.092 194.048-39.277s113.223-61.834 158.389-106.949c45.182-45.106 80.88-97.829 107.103-158.169s39.329-124.933 39.329-193.777c0-68.301-13.107-132.758-39.329-193.367-26.222-60.613-61.92-113.471-107.103-158.578-45.166-45.115-97.965-80.762-158.389-106.949-60.424-26.183-125.109-39.274-194.048-39.274zM512.488 34.091c26.797 35.489 49.353 71.29 67.663 107.394s33.221 75.567 44.741 118.394h-224.807c12.19-44.17 27.274-84.311 45.253-120.415 17.967-36.104 40.35-71.227 67.151-105.374zM410.797 48.51c-20.131 28.841-38.209 61.629-54.234 98.363-16.025 36.742-28.479 74.409-37.363 113.006h-178.137c27.736-54.457 64.932-100.21 111.59-137.259 46.657-37.041 99.372-61.743 158.143-74.11zM614.179 48.51c58.77 12.367 111.482 37.069 158.141 74.11 46.659 37.049 83.854 82.802 111.588 137.259h-178.137c-10.571-38.928-23.871-76.761-39.897-113.506-16.014-36.742-33.248-69.36-51.696-97.863zM108.034 338.538h195.216c-3.299 19.488-5.693 38.597-7.181 57.328-1.479 18.72-2.219 37.593-2.219 56.619s0.74 37.904 2.219 56.623c1.488 18.727 3.882 37.837 7.181 57.329h-195.216c-5.050-17.81-8.919-36.333-11.605-55.56-2.695-19.228-4.044-38.691-4.044-58.392 0-19.696 1.348-39.16 4.044-58.388 2.687-19.228 6.555-37.75 11.605-55.56zM382.006 338.538h260.964c3.289 19.488 5.679 38.428 7.168 56.816 1.477 18.389 2.217 37.435 2.217 57.131 0 19.7-0.74 38.747-2.217 57.135-1.489 18.389-3.879 37.325-7.168 56.817h-260.964c-3.291-19.492-5.68-38.428-7.168-56.817-1.479-18.389-2.219-37.435-2.219-57.135 0-19.696 0.74-38.743 2.219-57.131 1.488-18.389 3.877-37.329 7.168-56.816zM721.723 338.538h195.218c5.049 17.81 8.921 36.332 11.607 55.56 2.694 19.228 4.041 38.691 4.041 58.388 0 19.7-1.347 39.164-4.041 58.392-2.686 19.228-6.558 37.75-11.607 55.56h-195.218c3.3-19.492 5.695-38.601 7.184-57.329 1.477-18.72 2.217-37.597 2.217-56.623s-0.74-37.9-2.217-56.619c-1.489-18.731-3.883-37.841-7.184-57.328zM705.772 645.096h178.137c-28.065 55.131-65.008 100.884-110.828 137.259-45.816 36.367-98.784 61.24-158.901 74.621 20.129-30.52 38.038-63.901 53.721-100.145 15.691-36.235 28.318-73.48 37.872-111.735zM400.085 645.096h224.807c-12.193 43.839-27.526 84.23-46.001 121.173-18.487 36.943-40.621 71.815-66.402 104.616-25.785-32.8-47.919-67.673-66.402-104.616-18.475-36.944-33.812-77.334-46.001-121.173zM141.064 645.096h178.137c9.557 38.254 22.183 75.499 37.875 111.735 15.684 36.244 33.591 69.626 53.722 100.145-60.461-13.381-113.512-38.342-159.154-74.883-45.651-36.533-82.511-82.198-110.579-136.997z" />
<glyph unicode="&#xe945;" glyph-name="search" d="M941.086-39.932l-357.303 357.316c-28.446-23.484-61.154-41.865-98.133-55.138s-75.231-19.913-114.759-19.913c-97.233 0-179.523 33.664-246.869 100.992s-101.021 149.598-101.021 246.813c0 97.204 33.664 179.503 100.992 246.898 67.328 67.385 149.599 101.077 246.813 101.077 97.206 0 179.502-33.673 246.898-101.021 67.383-67.347 101.077-149.637 101.077-246.869 0-40.628-6.818-79.432-20.45-116.407-13.645-36.979-31.846-69.141-54.601-96.486l357.303-357.303-59.947-59.959zM370.89 327.654c73.3 0 135.384 25.438 186.256 76.318 50.876 50.867 76.314 112.951 76.314 186.252s-25.438 135.386-76.314 186.255c-50.871 50.877-112.956 76.316-186.256 76.316-73.301 0-135.386-25.439-186.254-76.316-50.878-50.868-76.317-112.953-76.317-186.255s25.439-135.385 76.317-186.252c50.868-50.88 112.953-76.318 186.254-76.318z" />
<glyph unicode="&#xe946;" glyph-name="move_item" d="M869.233 416.011h-503.223v64h503.223l-77.623 77.623 44.961 46.272 155.893-155.894-155.893-155.893-44.961 46.274 77.623 77.619zM648.678 581.76v151.788c0 3.833-1.229 6.98-3.69 9.44-2.469 2.46-5.614 3.69-9.439 3.69h-409.026c-3.833 0-6.979-1.23-9.44-3.69s-3.691-5.607-3.691-9.44v-571.072c0-3.833 1.23-6.978 3.691-9.439s5.607-3.69 9.44-3.69h409.026c3.825 0 6.971 1.229 9.439 3.69 2.461 2.461 3.69 5.606 3.69 9.439v151.786h64v-151.786c0-21.277-7.537-39.453-22.612-54.528-15.071-15.067-33.243-22.601-54.517-22.601h-409.026c-21.277 0-39.453 7.534-54.528 22.601-15.069 15.075-22.603 33.251-22.603 54.528v571.072c0 21.277 7.534 39.453 22.603 54.528 15.075 15.069 33.251 22.603 54.528 22.603h409.026c21.274 0 39.446-7.534 54.517-22.603 15.075-15.075 22.612-33.251 22.612-54.528v-151.788h-64z" />
<glyph unicode="&#xe947;" glyph-name="call" d="M851.2 64c-88.887 0-176.887 19.2-264 57.6s-166.222 93.154-237.333 164.267c-71.111 71.113-125.867 150.046-164.267 236.8-38.4 86.755-57.6 174.933-57.6 264.533v44.8h251.733l39.467-214.4-121.6-122.667c15.645-27.733 33.067-54.046 52.267-78.933s39.822-48 61.867-69.333c20.621-20.621 43.2-40.354 67.733-59.2s51.021-36.446 79.467-52.8l123.733 123.733 213.333-43.733v-250.667h-44.8zM257.067 576l70.4 70.4-18.133 100.267h-94.933c3.555-32 8.889-62.045 16-90.133s16-54.933 26.667-80.533zM638.933 194.133c28.446-12.087 57.067-21.687 85.867-28.8s57.421-11.733 85.867-13.867v93.867l-100.267 20.267-71.467-71.467z" />
<glyph unicode="&#xe948;" glyph-name="location_on" d="M512 448c23.467 0 43.554 8.354 60.267 25.067s25.067 36.8 25.067 60.267c0 23.467-8.354 43.555-25.067 60.267s-36.8 25.067-60.267 25.067c-23.467 0-43.554-8.355-60.267-25.067s-25.067-36.8-25.067-60.267c0-23.467 8.354-43.554 25.067-60.267s36.8-25.067 60.267-25.067zM512 134.4c86.754 79.646 151.113 152 193.067 217.067s62.933 122.846 62.933 173.333c0 77.511-24.713 140.978-74.133 190.4s-110.046 74.133-181.867 74.133c-71.821 0-132.445-24.711-181.867-74.133s-74.133-112.889-74.133-190.4c0-50.487 20.978-108.267 62.933-173.333s106.311-137.421 193.067-217.067zM512 21.333c-114.489 97.421-200 187.913-256.533 271.467s-84.8 160.887-84.8 232c0 106.667 34.311 191.645 102.933 254.933s148.089 94.933 238.4 94.933c90.313 0 169.779-31.645 238.4-94.933s102.933-148.267 102.933-254.933c0-71.113-28.267-148.446-84.8-232s-142.046-174.046-256.533-271.467z" />
<glyph unicode="&#xe949;" glyph-name="calendar_2" horiz-adv-x="922" d="M102.4-64c-28.16 0-52.267 10.025-72.32 30.080s-30.080 44.16-30.080 72.32v716.8c0 28.16 10.027 52.266 30.080 72.32s44.16 30.080 72.32 30.080h51.2v102.4h102.4v-102.4h409.6v102.4h102.4v-102.4h51.2c28.16 0 52.265-10.026 72.32-30.080s30.080-44.16 30.080-72.32v-716.8c0-28.16-10.025-52.265-30.080-72.32s-44.16-30.080-72.32-30.080h-716.8zM102.4 38.4h716.8v512h-716.8v-512zM102.4 652.8h716.8v102.4h-716.8v-102.4z" />
<glyph unicode="&#xe94a;" glyph-name="filter2" horiz-adv-x="960" d="M712.907 132.7c-38.591 0-71.214 13.326-97.87 39.971-26.645 26.652-39.968 59.275-39.968 97.87 0 38.601 13.323 71.224 39.968 97.87 26.656 26.652 59.279 39.982 97.87 39.982 38.601 0 71.224-13.33 97.873-39.982 26.652-26.645 39.978-59.268 39.978-97.87 0-38.594-13.326-71.217-39.978-97.87-26.649-26.645-59.272-39.971-97.873-39.971zM712.868 194.494c20.996 0 38.93 7.419 53.799 22.256 14.866 14.844 22.298 32.761 22.298 53.749 0 20.996-7.422 38.93-22.267 53.802-14.837 14.866-32.754 22.298-53.749 22.298s-38.926-7.422-53.792-22.267c-14.862-14.837-22.295-32.754-22.295-53.749s7.419-38.926 22.256-53.792c14.844-14.866 32.761-22.298 53.749-22.298zM171.034 239.645v61.793h313.725v-61.793h-313.725zM247.091 487.612c-38.6 0-71.223 13.326-97.87 39.978-26.653 26.649-39.98 59.272-39.98 97.87 0 38.593 13.327 71.217 39.98 97.87 26.647 26.647 59.27 39.97 97.87 39.97 38.593 0 71.216-13.323 97.871-39.97 26.645-26.653 39.968-59.277 39.968-97.87 0-38.598-13.323-71.222-39.968-97.87-26.655-26.652-59.278-39.978-97.871-39.978zM247.050 549.405c20.996 0 38.926 7.422 53.791 22.263 14.865 14.837 22.297 32.754 22.297 53.751s-7.419 38.926-22.256 53.791c-14.844 14.865-32.761 22.297-53.75 22.297-20.996 0-38.93-7.419-53.801-22.256-14.865-14.844-22.297-32.761-22.297-53.749 0-20.995 7.422-38.929 22.266-53.802 14.837-14.866 32.754-22.295 53.75-22.295zM475.244 594.563v61.794h313.722v-61.794h-313.722z" />
<glyph unicode="&#xe94f;" glyph-name="clock" d="M512 960c-282.77 0-512-229.23-512-512s229.23-512 512-512 512 229.23 512 512-229.23 512-512 512zM658.744 210.744l-210.744 210.746v282.51h128v-229.49l173.256-173.254-90.512-90.512z" />
</font>
</defs>
</svg>
